[4K UHD 蓝光原盘] 宇宙天魔 / Lifeforce (1985)(俄版) 4K蓝光REMUX 版本下载

[复制链接]

1230

主题

1291

帖子

1万

积分

超级版主

Rank: 8Rank: 8

积分
14698
 楼主| 发表于 2021-10-21 20:01:40 | 显示全部楼层 |阅读模式
本帖最后由 没完没了 于 2021-10-21 20:01 编辑

QQ图片20210521123631.png

◎译  名 宇宙天魔/崩裂的地球/撕裂的地球
◎片  名 Lifeforce
◎年  代 1985
◎产  地 英国
◎类  别 恐怖/科幻/惊悚
◎语  言 英语
◎上映日期 1985-06-21
◎IMDb评分  6.1/10 from 16,693 users
◎IMDb链接  http://www.imdb.com/title/tt0089489/
◎豆瓣评分 6.2/10 from 738 users
◎豆瓣链接 https://movie.douban.com/subject/1300305/
◎片  长 116 分钟/USA: 101 分钟(edited version)
◎导  演 托比·霍珀 Tobe Hooper
◎主  演 玛蒂尔达·梅 Mathilda May
      史蒂夫·雷尔斯巴克 Steve Railsback
      彼得·弗斯 Peter Firth
      弗兰克·芬莱 Frank Finlay
      帕特里克·斯图尔特 Patrick Stewart
      Michael Gothard

◎简  介

  宇宙飞船邱吉尔号接近哈雷彗星,欲探知其内部构造。船长汤姆•卡尔森(Steve Railsback 饰)带领一组队员走出船舱,发现彗星内部藏有一艘废弃的飞船,内有多具奇怪生物的干尸以及三个沉睡在水晶棺内的人类。为解开其中奥秘,汤姆下令将他们带回飞船。
  三十天后,空无一人的邱吉尔号飞临地球,航天总署派出哥伦比亚号与之对接。宇航员在船中发现焚烧的痕迹和那三个沉睡之人,而机组成员全部死亡。回到地球后,三个人中的女性(Mathilda May 饰)突然苏醒,吸取了年轻守卫的精气。之后守卫变成干尸,并最终风化。不久其他两人苏醒,似乎一场灾难正降临地球……



Media Info
General
Unique ID : 276861714818850926672544082256185187393 (0xD049A06F9192C4E1B3C38E16F7C2DC41)
Complete name : H:\DISC 4\Lifeforce.1985.BDRemux.AI_UPSCAL_3840x2160_alq-11_SDR_Final.mkv
Format : Matroska
Format version : Version 4
File size : 53.8 GiB
Duration : 1 h 56 min
Overall bit rate mode : Variable
Overall bit rate : 66.2 Mb/s
Encoded date : UTC 2021-03-14 23:03:40
Writing application : mkvmerge v55.0.0 ('Waiting For Space') 64-bit
Writing library : libebml v1.4.2 + libmatroska v1.6.4

Video
ID : 1
Format : HEVC
Format/Info : High Efficiency Video Coding
Format profile : Main@L5.2@Main
Codec ID : V_MPEGH/ISO/HEVC
Duration : 1 h 56 min
Bit rate : 62.6 Mb/s
Width : 3 840 pixels
Height : 2 160 pixels
Display aspect ratio : 16:9
Frame rate mode : Constant
Frame rate : 23.976 (24000/1001) FPS
Color space : YUV
Chroma subsampling : 4:2:0
Bit depth : 8 bits
Bits/(Pixel*Frame) : 0.315
Stream size : 50.8 GiB (95%)
Language : English
Default : Yes
Forced : No

Audio #1
ID : 2
Format : AC-3
Format/Info : Audio Coding 3
Commercial name : Dolby Digital
Format settings : Dolby Surround
Codec ID : A_AC3
Duration : 1 h 56 min
Bit rate mode : Constant
Bit rate : 192 kb/s
Channel(s) : 2 channels
Channel layout : L R
Sampling rate : 48.0 kHz
Frame rate : 31.250 FPS (1536 SPF)
Compression mode : Lossy
Stream size : 160 MiB (0%)
Title : ТВ 1000
Language : Russian
Service kind : Complete Main
Default : Yes
Forced : Yes

Audio #2
ID : 3
Format : AC-3
Format/Info : Audio Coding 3
Commercial name : Dolby Digital
Codec ID : A_AC3
Duration : 1 h 56 min
Bit rate mode : Constant
Bit rate : 192 kb/s
Channel(s) : 1 channel
Channel layout : C
Sampling rate : 48.0 kHz
Frame rate : 31.250 FPS (1536 SPF)
Compression mode : Lossy
Stream size : 160 MiB (0%)
Title : 5й канал
Language : Russian
Service kind : Complete Main
Default : No
Forced : No

Audio #3
ID : 4
Format : AC-3
Format/Info : Audio Coding 3
Commercial name : Dolby Digital
Codec ID : A_AC3
Duration : 1 h 56 min
Bit rate mode : Constant
Bit rate : 448 kb/s
Channel(s) : 6 channels
Channel layout : L R C LFE Ls Rs
Sampling rate : 48.0 kHz
Frame rate : 31.250 FPS (1536 SPF)
Compression mode : Lossy
Stream size : 373 MiB (1%)
Title : А.Гаврилов
Language : Russian
Service kind : Complete Main
Default : No
Forced : No

Audio #4
ID : 5
Format : AC-3
Format/Info : Audio Coding 3
Commercial name : Dolby Digital
Codec ID : A_AC3
Duration : 1 h 56 min
Bit rate mode : Constant
Bit rate : 384 kb/s
Channel(s) : 6 channels
Channel layout : L R C LFE Ls Rs
Sampling rate : 48.0 kHz
Frame rate : 31.250 FPS (1536 SPF)
Compression mode : Lossy
Stream size : 319 MiB (1%)
Title : С.Визгунов
Language : Russian
Service kind : Complete Main
Default : No
Forced : No

Audio #5
ID : 6
Format : DTS XLL
Format/Info : Digital Theater Systems
Commercial name : DTS-HD Master Audio
Codec ID : A_DTS
Duration : 1 h 56 min
Bit rate mode : Variable
Bit rate : 2 393 kb/s
Channel(s) : 6 channels
Channel layout : C L R Ls Rs LFE
Sampling rate : 48.0 kHz
Frame rate : 93.750 FPS (512 SPF)
Bit depth : 24 bits
Compression mode : Lossless
Stream size : 1.94 GiB (4%)
Language : English
Default : No
Forced : No

Text
ID : 7
Format : PGS
Muxing mode : zlib
Codec ID : S_HDMV/PGS
Codec ID/Info : Picture based subtitle format used on BDs/HD-DVDs
Duration : 1 h 49 min
Bit rate : 31.6 kb/s
Count of elements : 2022
Stream size : 24.8 MiB (0%)
Language : English
Default : No
Forced : No

Menu
00:00:00.000 : :Глава 01
00:03:00.000 : :Глава 02
00:06:00.000 : :Глава 03
00:09:00.000 : :Глава 04
00:12:00.000 : :Глава 05
00:15:00.000 : :Глава 06
00:18:00.000 : :Глава 07
00:21:00.000 : :Глава 08
00:24:00.000 : :Глава 09
00:27:00.000 : :Глава 10
00:30:00.000 : :Глава 11
00:33:00.000 : :Глава 12
00:36:00.000 : :Глава 13
00:39:00.000 : :Глава 14
00:42:00.000 : :Глава 15
00:45:00.000 : :Глава 16
00:48:00.000 : :Глава 17
00:51:00.000 : :Глава 18
00:54:00.000 : :Глава 19
00:57:00.000 : :Глава 20
01:00:00.000 : :Глава 21
01:03:00.000 : :Глава 22
01:06:00.000 : :Глава 23
01:09:00.000 : :Глава 24
01:12:00.000 : :Глава 25
01:15:00.000 : :Глава 26
01:18:00.000 : :Глава 27
01:21:00.000 : :Глава 28
01:24:00.000 : :Глава 29
01:27:00.000 : :Глава 30
01:30:00.000 : :Глава 31
01:33:00.000 : :Глава 32
01:36:00.000 : :Глава 33
01:39:00.000 : :Глава 34
01:42:00.000 : :Глава 35
01:45:00.000 : :Глава 36
01:48:00.000 : :Глава 37
01:51:00.000 : :Глава 38
01:54:00.000 : :Глава 39



4K蓝光版本资源,因新种资源,推荐使用qBittorrent、uTorrent等下载软件,有条件的推荐115更好的下载软件!

宇宙天魔(53.78GB)Lifeforce.1985.BDRemux.AI_UPSCAL_3840x2160_alq-11_SDR_Finalalang
游客,如果您要查看本帖隐藏内容请回复




1心,爱心.gif




上一篇:触不到的恋人 / The Lake House (2006)(俄版) 4K蓝光REMUX 版本下载
下一篇:海神号 / Poseidon (2006)(俄版) 4K蓝光版本下载
回复

使用道具 举报

2

主题

1681

帖子

4673

积分

4K家园VIP

Rank: 9Rank: 9Rank: 9

积分
4673
发表于 2021-10-21 20:01:57 来自手机 | 显示全部楼层
你们要是有4K资源记得分享,别小气
回复 支持 反对

使用道具 举报

48

主题

1507

帖子

4343

积分

4K家园VIP

Rank: 9Rank: 9Rank: 9

积分
4343
发表于 2021-10-21 20:01:57 | 显示全部楼层
4K家园不错,希望这种资源越多越好
回复 支持 反对

使用道具 举报

0

主题

6718

帖子

1万

积分

4K家园VIP

Rank: 9Rank: 9Rank: 9

积分
15606
发表于 2021-10-21 20:54:49 | 显示全部楼层
太好啦&萬分感謝版主的無私發佈分享%
回复 支持 反对

使用道具 举报

0

主题

6718

帖子

1万

积分

4K家园VIP

Rank: 9Rank: 9Rank: 9

积分
15606
发表于 2021-10-21 20:57:46 | 显示全部楼层
宇宙天魔4k字幕Lifeforce.1985.2160p.BluRay.x265.10bit.SDR.DTS-HD.MA.TrueHD5.1
回复 支持 反对

使用道具 举报

您需要登录后才可以回帖 登录 | 立即注册

本版积分规则

精彩图文
Archiver|手机版|TAG|Sitemap|新帖|专题|联系我们:邮箱: 4kjia.com@gmail.com   

4k家园   ©2019