[4K MV] 2021 ONF - Beautiful Beautiful 4k [2160P/MP4/399MB]

[复制链接]

2510

主题

2820

帖子

2万

积分

超级版主

Rank: 8Rank: 8

积分
23552
 楼主| 发表于 2021-8-30 22:05:19 | 显示全部楼层 |阅读模式

2021 ONF - Beautiful Beautiful 4k.mp4_20210810_113016.922.jpg 2021 ONF - Beautiful Beautiful 4k.mp4_20210810_113025.708.jpg 2021 ONF - Beautiful Beautiful 4k.mp4_20210810_113034.561.jpg 2021 ONF - Beautiful Beautiful 4k.mp4_20210810_113041.834.jpg 2021 ONF - Beautiful Beautiful 4k.mp4_20210810_113051.162.jpg 2021 ONF - Beautiful Beautiful 4k.mp4_20210810_113110.586.jpg
General
Complete name                  : E:\最新下载MV\2021 ONF - Beautiful Beautiful 4k.mp4
Format                         : MPEG-4
Format profile                 : Base Media
Codec ID                       : isom (isom/iso2/avc1/mp41)
File size                      : 399 MiB
Duration                       : 3 min 16 s
Overall bit rate               : 17.0 Mb/s
Writing application            : Lavf58.12.100
exvr                           : EX1.8.2(C1.0.9)

Video
ID                             : 1
Format                         : AVC
Format/Info                    : Advanced Video Codec
Format profile                 : High@L5.1
Format settings                : CABAC / 4 Ref Frames
Format settings, CABAC         : Yes
Format settings, Reference fra : 4 frames
Codec ID                       : avc1
Codec ID/Info                  : Advanced Video Coding
Duration                       : 3 min 16 s
Bit rate                       : 16.8 Mb/s
Width                          : 3 840 pixels
Height                         : 2 160 pixels
Display aspect ratio           : 16:9
Frame rate mode                : Constant
Frame rate                     : 23.976 (23976/1000) FPS
Color space                    : YUV
Chroma subsampling             : 4:2:0
Bit depth                      : 8 bits
Scan type                      : Progressive
Bits/(Pixel*Frame)             : 0.085
Stream size                    : 395 MiB (99%)
Color range                    : Limited
Color primaries                : BT.709
Transfer characteristics       : BT.709
Matrix coefficients            : BT.709
Codec configuration box        : avcC

Audio
ID                             : 2
Format                         : AAC LC
Format/Info                    : Advanced Audio Codec Low Complexity
Codec ID                       : mp4a-40-2
Duration                       : 3 min 16 s
Duration_LastFrame             : -1 ms
Bit rate mode                  : Constant
Bit rate                       : 192 kb/s
Channel(s)                     : 2 channels
Channel layout                 : L R
Sampling rate                  : 48.0 kHz
Frame rate                     : 46.875 FPS (1024 SPF)
Compression mode               : Lossy
Stream size                    : 4.51 MiB (1%)
Default                        : Yes
Alternate group                : 1

网盘下载失效不补:链接: https://pan.baidu.com/s/1S9FuYoVKqN7F-JjLQxVo-A 提取码:
****此区域为收费内容****    需支付 15 金币后可查看立即购买





上一篇:[4K MV] 2021 ONEUS - No diggity (Performance Video) 4k [2160P/MP4/475MB]
下一篇:[4K MV] 2021 WJSN - UNNATURAL [2160P/MP4/893MB]
回复

使用道具 举报

52

主题

1416

帖子

4078

积分

4K家园VIP

Rank: 9Rank: 9Rank: 9

积分
4078
发表于 2021-8-30 22:05:33 | 显示全部楼层
LZ帖子不给力,勉强给回复下吧
回复 支持 反对

使用道具 举报

1

主题

1561

帖子

4325

积分

4K家园VIP

Rank: 9Rank: 9Rank: 9

积分
4325
发表于 2021-8-31 11:49:24 来自手机 | 显示全部楼层
鼎力支持!!
回复 支持 反对

使用道具 举报

0

主题

1167

帖子

3513

积分

4K家园VIP

Rank: 9Rank: 9Rank: 9

积分
3513
发表于 2021-9-1 16:04:50 | 显示全部楼层
好,很好,非常好!
回复 支持 反对

使用道具 举报

2

主题

1641

帖子

4515

积分

4K家园VIP

Rank: 9Rank: 9Rank: 9

积分
4515
发表于 2021-9-2 08:09:23 | 显示全部楼层
回复 支持 反对

使用道具 举报

0

主题

112

帖子

3416

积分

中级会员

Rank: 4

积分
3416
发表于 2021-9-3 00:50:56 | 显示全部楼层
这是谁,国内的?
回复 支持 反对

使用道具 举报

1

主题

1369

帖子

3941

积分

中级会员

Rank: 4

积分
3941
发表于 2021-9-3 09:18:26 | 显示全部楼层
好像还可以
回复 支持 反对

使用道具 举报

您需要登录后才可以回帖 登录 | 立即注册

本版积分规则

精彩图文
Archiver|手机版|TAG|Sitemap|新帖|专题|联系我们:邮箱: 4kjia.com@gmail.com   

4k家园   ©2019