[4K MV] 2021 MCND - Not over 4k [2160P/MP4/452MB]

[复制链接]

2497

主题

2804

帖子

2万

积分

超级版主

Rank: 8Rank: 8

积分
23430
 楼主| 发表于 2021-8-28 13:10:05 | 显示全部楼层 |阅读模式
2021 MCND - Not over 4k.mp4_20210810_125007.103.jpg 2021 MCND - Not over 4k.mp4_20210810_125015.832.jpg 2021 MCND - Not over 4k.mp4_20210810_125021.472.jpg 2021 MCND - Not over 4k.mp4_20210810_125035.393.jpg 2021 MCND - Not over 4k.mp4_20210810_125043.088.jpg 2021 MCND - Not over 4k.mp4_20210810_125051.312.jpg

General
Complete name                  : E:\最新下载MV\2021 MCND - Not over 4k.mp4
Format                         : MPEG-4
Format profile                 : Base Media
Codec ID                       : isom (isom/iso2/avc1/mp41)
File size                      : 453 MiB
Duration                       : 3 min 26 s
Overall bit rate               : 18.4 Mb/s
Writing application            : Lavf58.12.100
exvr                           : EX1.8.2(C1.0.9)

Video
ID                             : 1
Format                         : AVC
Format/Info                    : Advanced Video Codec
Format profile                 : High@L5.1
Format settings                : CABAC / 4 Ref Frames
Format settings, CABAC         : Yes
Format settings, Reference fra : 4 frames
Codec ID                       : avc1
Codec ID/Info                  : Advanced Video Coding
Duration                       : 3 min 26 s
Bit rate                       : 18.2 Mb/s
Width                          : 3 840 pixels
Height                         : 2 160 pixels
Display aspect ratio           : 16:9
Frame rate mode                : Constant
Frame rate                     : 23.976 (23976/1000) FPS
Color space                    : YUV
Chroma subsampling             : 4:2:0
Bit depth                      : 8 bits
Scan type                      : Progressive
Bits/(Pixel*Frame)             : 0.092
Stream size                    : 448 MiB (99%)
Codec configuration box        : avcC

Audio
ID                             : 2
Format                         : AAC LC
Format/Info                    : Advanced Audio Codec Low Complexity
Codec ID                       : mp4a-40-2
Duration                       : 3 min 26 s
Bit rate mode                  : Constant
Bit rate                       : 192 kb/s
Channel(s)                     : 2 channels
Channel layout                 : L R
Sampling rate                  : 48.0 kHz
Frame rate                     : 46.875 FPS (1024 SPF)
Compression mode               : Lossy
Stream size                    : 4.73 MiB (1%)
Default                        : Yes
Alternate group                : 1
提供更多【4K、8K、16K(25-120fps)】高品质MV、演示片等珍藏版视频,需要的联系本楼主

网盘下载失效不补:链接: https://pan.baidu.com/s/1yTR9NdZoX87P0Znlb_4cvA 提取码:
****此区域为收费内容****    需支付 15 金币后可查看立即购买





上一篇:[4K MV] R3HABR3hab与蔡依林群星起舞 [2160P/MP4/1.92GB]
下一篇:[4K MV] 2021 MIRAE - KILLA 4k [2160P/MP4/343MB]
回复

使用道具 举报

1

主题

1572

帖子

4296

积分

4K家园VIP

Rank: 9Rank: 9Rank: 9

积分
4296
发表于 2021-8-28 13:10:09 来自手机 | 显示全部楼层
4K家园资源不错,前排支持
回复 支持 反对

使用道具 举报

4

主题

1241

帖子

3743

积分

4K家园VIP

Rank: 9Rank: 9Rank: 9

积分
3743
发表于 2021-8-30 23:07:27 来自手机 | 显示全部楼层
路过 帮顶 嘿嘿
回复 支持 反对

使用道具 举报

2

主题

1307

帖子

3739

积分

4K家园VIP

Rank: 9Rank: 9Rank: 9

积分
3739
发表于 2021-9-1 06:27:13 | 显示全部楼层
围观 围观 沙发在哪里!!!
回复 支持 反对

使用道具 举报

1

主题

1352

帖子

4070

积分

4K家园VIP

Rank: 9Rank: 9Rank: 9

积分
4070
发表于 2021-9-2 16:34:53 | 显示全部楼层
试试看吧
回复 支持 反对

使用道具 举报

195

主题

1525

帖子

4177

积分

4K家园VIP

Rank: 9Rank: 9Rank: 9

积分
4177
发表于 2021-9-2 23:51:40 | 显示全部楼层
支持,楼下的跟上哈~
回复 支持 反对

使用道具 举报

您需要登录后才可以回帖 登录 | 立即注册

本版积分规则

精彩图文
Archiver|手机版|TAG|Sitemap|新帖|专题|联系我们:邮箱: 4kjia.com@gmail.com   

4k家园   ©2019