[国家地理] [4K 国家地理] 拉帕尔马(2021)[2160P/MKV/291MB]

[复制链接]

2510

主题

2820

帖子

2万

积分

超级版主

Rank: 8Rank: 8

积分
23552
 楼主| 发表于 2021-8-25 13:56:19 | 显示全部楼层 |阅读模式
本帖最后由 叽里呱啦 于 2021-8-16 15:44 编辑

拉帕尔马(291MB) (2021) WEBRip 2160p.mkv_20210816_154049.034.jpg 拉帕尔马(291MB) (2021) WEBRip 2160p.mkv_20210816_154113.110.jpg 拉帕尔马(291MB) (2021) WEBRip 2160p.mkv_20210816_154126.045.jpg 拉帕尔马(291MB) (2021) WEBRip 2160p.mkv_20210816_154140.214.jpg 拉帕尔马(291MB) (2021) WEBRip 2160p.mkv_20210816_154153.029.jpg

影片信息
片名:拉帕尔马
上映年份: 2021
国家:西班牙
时长: 00 : 02 : 51
类型: 物种
导演:弗洛里安·奥尔斯

影片简介:

       2021 年 7 月,我去大西洋的一个小岛拍摄夜空。

General
Complete name                  : E:\4K@电影 4K@MV\拉帕尔马(291MB) (2021) WEBRip 2160p.mkv
Format                         : Matroska
Format version                 : Version 4
File size                      : 291 MiB
Duration                       : 2 min 51 s
Overall bit rate               : 14.2 Mb/s
Encoded date                   : UTC 2021-08-15 18:27:59
Writing application            : mkvmerge v60.0.0 ('Are We Copies?') 64-bit
Writing library                : libebml v1.4.2 + libmatroska v1.6.4 / Lavf58.29.100

Video
ID                             : 1
Format                         : VP9
Codec ID                       : V_VP9
Duration                       : 2 min 51 s
Bit rate                       : 14.1 Mb/s
Width                          : 3 840 pixels
Height                         : 2 160 pixels
Display aspect ratio           : 16:9
Frame rate mode                : Constant
Frame rate                     : 30.000 FPS
Color space                    : YUV
Bits/(Pixel*Frame)             : 0.057
Stream size                    : 288 MiB (99%)
Default                        : Yes
Forced                         : No
Color range                    : Limited
Color primaries                : BT.709
Transfer characteristics       : BT.709
Matrix coefficients            : BT.709

Audio
ID                             : 2
Format                         : AAC LC
Format/Info                    : Advanced Audio Codec Low Complexity
Codec ID                       : A_AAC-2
Duration                       : 2 min 51 s
Bit rate                       : 128 kb/s
Channel(s)                     : 2 channels
Channel layout                 : L R
Sampling rate                  : 44.1 kHz
Frame rate                     : 43.066 FPS (1024 SPF)
Compression mode               : Lossy
Stream size                    : 2.62 MiB (1%)
Default                        : Yes
Forced                         : No

下载地址:
****此区域为收费内容****    需支付 15 金币后可查看立即购买





上一篇:[4K 国家地理] 天空绚丽的天堂(2021)[2160P/MKV/495MB]
下一篇:[4K 国家地理] 法亚尔(2021)[2160P/MKV/314MB]
回复

使用道具 举报

61

主题

1423

帖子

4091

积分

4K家园VIP

Rank: 9Rank: 9Rank: 9

积分
4091
发表于 2021-8-25 13:56:27 | 显示全部楼层
看帖要回,回帖才健康,在踩踩,楼主辛苦了!
回复 支持 反对

使用道具 举报

0

主题

5838

帖子

1万

积分

4K家园VIP

Rank: 9Rank: 9Rank: 9

积分
13919
发表于 2021-8-25 16:02:06 | 显示全部楼层
西班牙拉帕爾馬4k
回复 支持 反对

使用道具 举报

1

主题

1676

帖子

4636

积分

4K家园VIP

Rank: 9Rank: 9Rank: 9

积分
4636
发表于 2021-8-29 12:48:46 来自手机 | 显示全部楼层
发发呆,回回帖,工作结束~
回复 支持 反对

使用道具 举报

0

主题

1643

帖子

4537

积分

4K家园VIP

Rank: 9Rank: 9Rank: 9

积分
4537
发表于 2021-9-5 03:01:01 | 显示全部楼层
没明白
回复 支持 反对

使用道具 举报

0

主题

607

帖子

2118

积分

注册会员

Rank: 2

积分
2118
发表于 2021-9-5 23:05:54 | 显示全部楼层
谢谢楼主辛苦劳动
回复 支持 反对

使用道具 举报

2

主题

1105

帖子

3337

积分

4K家园VIP

Rank: 9Rank: 9Rank: 9

积分
3337
发表于 2021-9-6 19:08:55 | 显示全部楼层
珍爱生命,果断回帖。
回复 支持 反对

使用道具 举报

0

主题

1297

帖子

3905

积分

4K家园VIP

Rank: 9Rank: 9Rank: 9

积分
3905
发表于 2021-9-7 15:50:03 | 显示全部楼层
在撸一遍。。。
回复 支持 反对

使用道具 举报

您需要登录后才可以回帖 登录 | 立即注册

本版积分规则

精彩图文
Archiver|手机版|TAG|Sitemap|新帖|专题|联系我们:邮箱: 4kjia.com@gmail.com   

4k家园   ©2019