[4K电影] Gutterbee (2019) 4K高清版本下载/9.22GB

[复制链接]

872

主题

927

帖子

7970

积分

超级版主

Rank: 8Rank: 8

积分
7970
 楼主| 发表于 2021-8-27 16:20:29 | 显示全部楼层 |阅读模式
QQ图片20210827160416.png

◎片  名 Gutterbee / American Sausage Standoff
◎年  代 2019
◎产  地 丹麦
◎语  言 英语
◎类  别 喜剧
◎上映日期 2019-10-21(圣保罗国际电影节) / 2020-12-10(丹麦)
◎IMDb评分  6.3/10 from 116 users
◎IMDb链接  https://www.imdb.com/title/tt8322502/
◎豆瓣评分 0/10 from 0 users
◎豆瓣链接 https://movie.douban.com/subject/30301001/
◎片  长 108分钟
◎导  演 乌尔里奇·汤姆森
◎编  剧 乌尔里奇·汤姆森
◎主  演   安东尼·斯塔尔
                   艾文·布莱纳
                   W·厄尔·布朗
                   约书亚·哈托
                   克拉克·米德尔顿
                   钱斯·凯利
                   皮亚·梅奇勒
                   加雷斯·威廉姆斯
                   萨拉MINNICH
                   霍莉·亚当斯
                   萨曼莎康拉德
                   史蒂夫巴肯
                   特鲁迪科尔多瓦
                   LynNita埃利斯
                   克里斯托弗·哈根
                   亚当·哈维·刘易斯
                   大卫·海特
                   斯蒂芬妮·希尔
                   博妮塔·金
                   布拉德·伦德



◎简  介


          Gutterbee 是一部关于香肠和友谊的人物喜剧。以美国小镇为背景,讲述了两个绝望的梦想家联手=建立终极德国香肠餐厅的故事。Gutterbee 也是对身份恐惧关系的社会讽刺,在那里宗教成为知识分子的死胡同,种族主义、同性恋恐惧症和不宽容占主导地位。
General
Complete name                  : E:\4K@电影 4K@MV\Gutterbee.2019.2160p.WEB-DL.x265.10bit.SDR.DD5.1.x265-NOGRP.mkv
Format                         : Matroska
Format version                 : Version 4
File size                      : 9.13 GiB
Duration                       : 1 h 48 min
Overall bit rate               : 12.1 Mb/s
Encoded date                   : UTC 2021-08-27 06:11:01
Writing application            : mkvmerge v60.0.0 ('Are We Copies?') 64-bit
Writing library                : libebml v1.4.2 + libmatroska v1.6.4
IsTruncated                    : Yes

Video
ID                             : 1
Format                         : HEVC
Format/Info                    : High Efficiency Video Coding
Format profile                 : Main 10@L5@High
Codec ID                       : V_MPEGH/ISO/HEVC
Duration                       : 1 h 48 min
Bit rate                       : 11.5 Mb/s
Width                          : 3 836 pixels
Height                         : 1 592 pixels
Display aspect ratio           : 2.40:1
Frame rate mode                : Constant
Frame rate                     : 23.976 (24000/1001) FPS
Color space                    : YUV
Chroma subsampling             : 4:2:0
Bit depth                      : 10 bits
Bits/(Pixel*Frame)             : 0.078
Stream size                    : 8.66 GiB (95%)
Default                        : Yes
Forced                         : No
Color range                    : Limited
Color primaries                : BT.709
Transfer characteristics       : BT.709
Matrix coefficients            : BT.709

Audio
ID                             : 2
Format                         : AC-3
Format/Info                    : Audio Coding 3
Commercial name                : Dolby Digital
Codec ID                       : A_AC3
Duration                       : 1 h 48 min
Bit rate mode                  : Constant
Bit rate                       : 384 kb/s
Channel(s)                     : 6 channels
Channel layout                 : L R C LFE Ls Rs
Sampling rate                  : 48.0 kHz
Frame rate                     : 31.250 FPS (1536 SPF)
Compression mode               : Lossy
Stream size                    : 297 MiB (3%)
Title                          : English
Language                       : English
Service kind                   : Complete Main
Default                        : No
Forced                         : No

Text
ID                             : 3
Format                         : UTF-8
Codec ID                       : S_TEXT/UTF8
Codec ID/Info                  : UTF-8 Plain Text
Language                       : English
Default                        : Yes
Forced                         : No



下载链接:

游客,如果您要查看本帖隐藏内容请回复





上一篇:尊重 / Respect (2021) 4K高清版本下载/25.68GB
下一篇:玩命快递2 / Transporter 2 (2005) 4K高清版本下载/11.11GB
回复

使用道具 举报

3

主题

1394

帖子

4036

积分

4K家园VIP

Rank: 9Rank: 9Rank: 9

积分
4036
发表于 2021-8-27 16:21:02 | 显示全部楼层
介是神马?!!
回复 支持 反对

使用道具 举报

2

主题

1595

帖子

4425

积分

4K家园VIP

Rank: 9Rank: 9Rank: 9

积分
4425
发表于 2021-8-28 14:28:30 | 显示全部楼层
我是个凑数的。。。
回复 支持 反对

使用道具 举报

2

主题

1277

帖子

3847

积分

4K家园VIP

Rank: 9Rank: 9Rank: 9

积分
3847
发表于 2021-8-29 06:28:12 | 显示全部楼层
我是个凑数的。。。
回复 支持 反对

使用道具 举报

53

主题

1497

帖子

4263

积分

4K家园VIP

Rank: 9Rank: 9Rank: 9

积分
4263
发表于 2021-8-31 12:32:07 | 显示全部楼层
路过
回复 支持 反对

使用道具 举报

0

主题

16

帖子

45

积分

新手上路

Rank: 1

积分
45
发表于 2021-8-31 21:51:05 | 显示全部楼层

Where is Administration 4kjia.com ??

Where is moderator??
It is about advertisement on your website.
Thank.
回复 支持 反对

使用道具 举报

1

主题

1360

帖子

3896

积分

4K家园VIP

Rank: 9Rank: 9Rank: 9

积分
3896
发表于 2021-9-1 23:50:42 | 显示全部楼层
边撸边过
回复 支持 反对

使用道具 举报

您需要登录后才可以回帖 登录 | 立即注册

本版积分规则

精彩图文
Archiver|手机版|TAG|Sitemap|新帖|专题|联系我们:邮箱: 4kjia.com@gmail.com   

4k家园   ©2019