[国家地理] [4K 国家地理] 阿尔卑斯山的美丽景色(2019)[2160P/MKV/589MB]

[复制链接]

2567

主题

2891

帖子

2万

积分

超级版主

Rank: 8Rank: 8

积分
24049
 楼主| 发表于 2021-9-22 09:50:00 | 显示全部楼层 |阅读模式

阿尔卑斯山的美丽景色(589MB)(2020)WEBRip 2160p.mkv_20210829_140514.446.jpg.jpg 阿尔卑斯山的美丽景色(589MB)(2020)WEBRip 2160p.mkv_20210829_140525.951.jpg.jpg 阿尔卑斯山的美丽景色(589MB)(2020)WEBRip 2160p.mkv_20210829_140532.117.jpg.jpg 阿尔卑斯山的美丽景色(589MB)(2020)WEBRip 2160p.mkv_20210829_140539.646.jpg.jpg 阿尔卑斯山的美丽景色(589MB)(2020)WEBRip 2160p.mkv_20210829_140546.741.jpg.jpg 阿尔卑斯山的美丽景色(589MB)(2020)WEBRip 2160p.mkv_20210829_140553.942.jpg.jpg

有关信息
标题:安达卢西亚的激情
发行年份: 2019
国家/地区:西班牙
时长: 00 : 08 : 38
体裁: 种属
导演:李布兰(Brandon Li)

关于电影:

       对弗拉门戈舞的热情在整个安达卢西亚传播。去西班牙旅行。

General
Complete name                  : J:\国家地理\阿尔卑斯山的美丽景色(589MB)(2020)WEBRip 2160p.mkv
Format                         : Matroska
Format version                 : Version 4
File size                      : 589 MiB
Duration                       : 5 min 20 s
Overall bit rate               : 15.4 Mb/s
Encoded date                   : UTC 2021-03-12 19:48:26
Writing application            : mkvmerge v55.0.0 ('Waiting For Space') 64-bit
Writing library                : libebml v1.4.2 + libmatroska v1.6.4

Video
ID                             : 1
Format                         : AVC
Format/Info                    : Advanced Video Codec
Format profile                 : High@L5.2
Format settings                : CABAC / 5 Ref Frames
Format settings, CABAC         : Yes
Format settings, Reference fra : 5 frames
Codec ID                       : V_MPEG4/ISO/AVC
Duration                       : 5 min 20 s
Bit rate                       : 15.2 Mb/s
Width                          : 3 840 pixels
Height                         : 2 160 pixels
Display aspect ratio           : 16:9
Frame rate mode                : Constant
Frame rate                     : 23.976 (24000/1001) FPS
Color space                    : YUV
Chroma subsampling             : 4:2:0
Bit depth                      : 8 bits
Scan type                      : Progressive
Bits/(Pixel*Frame)             : 0.076
Stream size                    : 579 MiB (98%)
Writing library                : x264 core 161 r10 4121277
Encoding settings              : cabac=1 / ref=5 / deblock=1:0:0 / analyse=0x3:0x113 / me=hex / subme=8 / psy=1 / psy_rd=1.00:0.00 / mixed_ref=1 / me_range=16 / chroma_me=1 / trellis=2 / 8x8dct=1 / cqm=0 / deadzone=21,11 / fast_pskip=1 / chroma_qp_offset=-2 / threads=48 / lookahead_threads=8 / sliced_threads=0 / nr=0 / decimate=1 / interlaced=0 / bluray_compat=0 / stitchable=1 / constrained_intra=0 / bframes=3 / b_pyramid=2 / b_adapt=2 / b_bias=0 / direct=3 / weightb=1 / open_gop=0 / weightp=2 / keyint=infinite / keyint_min=23 / scenecut=40 / intra_refresh=0 / rc_lookahead=50 / rc=crf / mbtree=1 / crf=20.0 / qcomp=0.60 / qpmin=5 / qpmax=69 / qpstep=4 / vbv_maxrate=24200 / vbv_bufsize=66000 / crf_max=0.0 / nal_hrd=none / filler=0 / ip_ratio=1.40 / aq=1:1.00
Default                        : Yes
Forced                         : No
Color range                    : Limited
Color primaries                : BT.709
Transfer characteristics       : BT.709
Matrix coefficients            : BT.709

Audio
ID                             : 2
Format                         : AAC LC
Format/Info                    : Advanced Audio Codec Low Complexity
Codec ID                       : A_AAC-2
Duration                       : 5 min 20 s
Bit rate                       : 253 kb/s
Channel(s)                     : 2 channels
Channel layout                 : L R
Sampling rate                  : 48.0 kHz
Frame rate                     : 46.875 FPS (1024 SPF)
Compression mode               : Lossy
Stream size                    : 9.67 MiB (2%)
Default                        : Yes
Forced                         : No
****此区域为收费内容****    需支付 15 金币后可查看立即购买





上一篇:[4K 国家地理] 巴伐利亚风光(2020)[2160P/MKV/628MB]
下一篇:[4K 国家地理] 意大利-前往托斯卡纳(2020)[2160P/MKV/215MB]
回复

使用道具 举报

1

主题

1577

帖子

4353

积分

4K家园VIP

Rank: 9Rank: 9Rank: 9

积分
4353
发表于 2021-9-22 09:50:05 来自手机 | 显示全部楼层
体验下4K版的
回复 支持 反对

使用道具 举报

57

主题

1487

帖子

4311

积分

4K家园VIP

Rank: 9Rank: 9Rank: 9

积分
4311
发表于 2021-9-22 18:36:13 | 显示全部楼层
高手云集 果断围观
回复 支持 反对

使用道具 举报

0

主题

1190

帖子

3762

积分

中级会员

Rank: 4

积分
3762
发表于 2021-9-24 10:55:21 | 显示全部楼层
谢楼主的精彩分享
回复 支持 反对

使用道具 举报

0

主题

2

帖子

9

积分

新手上路

Rank: 1

积分
9
发表于 2021-9-26 09:45:02 | 显示全部楼层

谢谢楼主分享!
回复 支持 反对

使用道具 举报

3

主题

1335

帖子

3835

积分

4K家园VIP

Rank: 9Rank: 9Rank: 9

积分
3835
发表于 2021-9-26 14:43:25 | 显示全部楼层
前排顶起
回复 支持 反对

使用道具 举报

2

主题

1579

帖子

4337

积分

4K家园VIP

Rank: 9Rank: 9Rank: 9

积分
4337
发表于 2021-9-30 14:05:01 | 显示全部楼层
试试先,好用再说
回复 支持 反对

使用道具 举报

49

主题

1419

帖子

4063

积分

4K家园VIP

Rank: 9Rank: 9Rank: 9

积分
4063
发表于 2021-10-2 07:32:24 | 显示全部楼层
LZ帖子不给力,勉强给回复下吧
回复 支持 反对

使用道具 举报

您需要登录后才可以回帖 登录 | 立即注册

本版积分规则

精彩图文
Archiver|手机版|TAG|Sitemap|新帖|专题|联系我们:邮箱: 4kjia.com@gmail.com   

4k家园   ©2019