[4K电影] The.Conservation.Game (2021) 4K高清版本下载/10.36GB

[复制链接]

872

主题

927

帖子

7961

积分

超级版主

Rank: 8Rank: 8

积分
7961
 楼主| 发表于 2021-9-2 11:28:12 | 显示全部楼层 |阅读模式
本帖最后由 最爱4K哟 于 2021-9-2 12:35 编辑

QQ图片20210902111510_副本.png

◎片  名 The.Conservation.Game
◎年  代 2021
◎产  地 美国
◎类  别 纪录片
◎语  言 英语
◎上映日期 2021
◎IMDb评分  7.7/10 from 11 users
◎IMDb链接  https://www.imdb.com/title/tt14207592/  
◎片  长 87 分钟
◎导  演 迈克尔·韦伯
◎主  演 卡罗尔·巴斯金
                   霍华德巴斯金
                   基思·盖德
        杰克汉纳
        蒂姆·哈里森
                   杰夫·克雷默
                   罗斯·蒙茨
                   卡尼·安妮·纳赛尔
                   亚伦·尼克松


◎简  介



        以美国圈养大型猫科动物的全国性辩论为背景,《保护游戏》讲述了俄亥俄州警察蒂姆·哈里森 (Tim Harrison) 的故事,他在一次异国情调的动物拍卖会上卧底时偶然发现了一个重磅炸弹。他开始怀疑美国顶级的电视名人环保主义者可能与异国情调的宠物贸易有秘密联系。接下来是一场高风险的猫捉老鼠游戏,充满谎言、欺骗和掩饰。随着他的调查深入了解大型猫科动物贸易的秘密世界,蒂姆和他的团队将他们的斗争带到了国会大厅,敦促立法者通过联邦立法,以结束对这些濒危动物的私人养殖和剥削。但是当反对来自一个意想不到的来源时,蒂姆被迫面对自己过去的恶魔,
General
Unique ID                      : 186463538818845172105962212662692655493 (0x8C4792405FA19A9A503B8DED0EB1B185)
Complete name                  : E:\4K@电影 4K@MV\The.Conservation.Game.2021.2160p.STAN.WEB-DL.x265.8bit.SDR.AAC2.0.x265-TEPES\The.Conservation.Game.2021.2160p.STAN.WEB-DL.AAC2.0.HEVC-TEPES.mkv
Format                         : Matroska
Format version                 : Version 4
File size                      : 10.4 GiB
Duration                       : 1 h 50 min
Overall bit rate               : 13.4 Mb/s
Encoded date                   : UTC 2021-08-31 19:17:08
Writing application            : mkvmerge v59.0.0 ('Shining Star') 64-bit
Writing library                : libebml v1.4.2 + libmatroska v1.6.4

Video
ID                             : 1
Format                         : HEVC
Format/Info                    : High Efficiency Video Coding
Format profile                 : Main@L5@High
Codec ID                       : V_MPEGH/ISO/HEVC
Duration                       : 1 h 50 min
Bit rate                       : 13.3 Mb/s
Width                          : 3 840 pixels
Height                         : 1 620 pixels
Display aspect ratio           : 2.40:1
Frame rate mode                : Constant
Frame rate                     : 24.000 FPS
Color space                    : YUV
Chroma subsampling             : 4:2:0
Bit depth                      : 8 bits
Bits/(Pixel*Frame)             : 0.089
Stream size                    : 10.3 GiB (99%)
Default                        : Yes
Forced                         : No
Color range                    : Limited
Color primaries                : BT.709
Transfer characteristics       : BT.709
Matrix coefficients            : BT.709

Audio
ID                             : 2
Format                         : AAC LC
Format/Info                    : Advanced Audio Codec Low Complexity
Codec ID                       : A_AAC-2
Duration                       : 1 h 50 min
Bit rate                       : 126 kb/s
Channel(s)                     : 2 channels
Channel layout                 : L R
Sampling rate                  : 44.1 kHz
Frame rate                     : 43.066 FPS (1024 SPF)
Compression mode               : Lossy
Stream size                    : 99.4 MiB (1%)
Language                       : English
Default                        : Yes
Forced                         : No

Text
ID                             : 3
Format                         : UTF-8
Codec ID                       : S_TEXT/UTF8
Codec ID/Info                  : UTF-8 Plain Text
Duration                       : 1 h 49 min
Bit rate                       : 108 b/s
Count of elements              : 2279
Stream size                    : 86.8 KiB (0%)
Title                          : SDH
Language                       : English
Default                        : No
Forced                         : No


游客,如果您要查看本帖隐藏内容请回复






上一篇:911:总统作战室(内封中字) (2021) 4K高清版本下载/16.00GB
下一篇:灰姑娘(内封中字) / Cinderella (2021) 4K高清版本下载/12.15GB
回复

使用道具 举报

48

主题

1532

帖子

4408

积分

4K家园VIP

Rank: 9Rank: 9Rank: 9

积分
4408
发表于 2021-9-2 11:28:18 | 显示全部楼层
是爷们的娘们的都帮顶!大力支持
回复 支持 反对

使用道具 举报

1

主题

1330

帖子

3820

积分

4K家园VIP

Rank: 9Rank: 9Rank: 9

积分
3820
发表于 2021-9-3 00:43:10 | 显示全部楼层
体验下4K版的
回复 支持 反对

使用道具 举报

11

主题

1151

帖子

3425

积分

4K家园VIP

Rank: 9Rank: 9Rank: 9

积分
3425
发表于 2021-9-3 14:20:02 | 显示全部楼层
回复 支持 反对

使用道具 举报

55

主题

1399

帖子

4073

积分

4K家园VIP

Rank: 9Rank: 9Rank: 9

积分
4073
发表于 2021-9-3 20:27:10 | 显示全部楼层
不错 支持下
回复 支持 反对

使用道具 举报

0

主题

1396

帖子

4000

积分

4K家园VIP

Rank: 9Rank: 9Rank: 9

积分
4000
发表于 2021-9-4 16:08:58 来自手机 | 显示全部楼层
4K版的应该更清晰吧
回复 支持 反对

使用道具 举报

您需要登录后才可以回帖 登录 | 立即注册

本版积分规则

精彩图文
Archiver|手机版|TAG|Sitemap|新帖|专题|联系我们:邮箱: 4kjia.com@gmail.com   

4k家园   ©2019