[4K电影] Bitchin.The.Sound.and.Fury.of.Rick.James (2021) 4K高清版本下载/11.92GB

[复制链接]

11

主题

1194

帖子

3564

积分

4K家园VIP

Rank: 9Rank: 9Rank: 9

积分
3564
 楼主| 发表于 2021-9-3 14:25:09 | 显示全部楼层 |阅读模式
本帖最后由 最爱4K哟 于 2021-9-4 13:49 编辑

QQ图片20210903140540_副本.png

◎片  名 Bitchin.The.Sound.and.Fury.of.Rick.James
◎年  代 2021
◎产  地 美国
◎类  别 纪录片 / 音乐
◎语  言 英语
◎上映日期 尚未上映
◎IMDb评分  6.6/10 from 10 users
◎IMDb链接  https://www.imdb.com/title/tt14622962/
◎豆瓣评分 0/10 from 0 users
◎豆瓣链接 https://movie.douban.com/subject/35447487/
◎片  长 ? 分钟
◎导  演 莎查·詹金斯



◎简  介



         这部传奇的funk/R&;B偶像里克·詹姆斯(Rick James)捕捉了他传奇职业生涯的巅峰和低谷,展现了一个复杂而叛逆的灵魂,他渴望与全世界分享自己的才华
General
Complete name                  : E:\4K@电影 4K@MV\bitchin.the.sound.and.fury.of.rick.james.2021.2160p.web.h265-bigdoc.mkv
Format                         : Matroska
Format version                 : Version 4
File size                      : 11.8 GiB
Duration                       : 1 h 52 min
Overall bit rate               : 15.0 Mb/s
Writing application            : mkvmerge v49.0.0 ('Sick Of Losing Soulmates') 64-bit
Writing library                : libebml v1.4.0 + libmatroska v1.6.1

Video
ID                             : 1
Format                         : HEVC
Format/Info                    : High Efficiency Video Coding
Format profile                 : Main@L5@Main
Codec ID                       : V_MPEGH/ISO/HEVC
Duration                       : 1 h 52 min
Bit rate                       : 14.3 Mb/s
Width                          : 3 840 pixels
Height                         : 2 160 pixels
Display aspect ratio           : 16:9
Frame rate mode                : Constant
Frame rate                     : 23.976 (24000/1001) FPS
Color space                    : YUV
Chroma subsampling             : 4:2:0
Bit depth                      : 8 bits
Bits/(Pixel*Frame)             : 0.072
Stream size                    : 11.3 GiB (95%)
Writing library                : x265 3.5hy:[Linux][GCC 7.5.0][64 bit] 8bit
Encoding settings              : cpuid=1111039 / frame-threads=2 / wpp / no-pmode / no-pme / no-psnr / no-ssim / log-level=2 / input-csp=1 / input-res=3840x2160 / interlace=0 / total-frames=0 / level-idc=0 / high-tier=1 / uhd-bd=0 / ref=4 / no-allow-non-conformance / repeat-headers / annexb / aud / hrd / info / hash=0 / no-temporal-layers / no-open-gop / min-keyint=48 / keyint=48 / gop-lookahead=0 / bframes=4 / b-adapt=2 / b-pyramid / bframe-bias=0 / rc-lookahead=48 / lookahead-slices=4 / scenecut=0 / hist-scenecut=0 / radl=0 / no-splice / no-intra-refresh / ctu=64 / min-cu-size=8 / rect / no-amp / max-tu-size=32 / tu-inter-depth=1 / tu-intra-depth=1 / limit-tu=0 / rdoq-level=2 / dynamic-rd=0.00 / no-ssim-rd / signhide / no-tskip / nr-intra=100 / nr-inter=200 / no-constrained-intra / strong-intra-smoothing / max-merge=3 / limit-refs=3 / limit-modes / me=3 / subme=3 / merange=57 / temporal-mvp / no-frame-dup / no-hme / weightp / no-weightb / no-analyze-src-pics / deblock=0:0 / no-sao / no-sao-non-deblock / rd=4 / selective-sao=0 / no-early-skip / no-rskip / no-fast-intra / no-tskip-fast / no-cu-lossless / no-b-intra / no-splitrd-skip / rdpenalty=0 / psy-rd=0.00 / psy-rdoq=10.00 / no-rd-refine / no-lossless / cbqpoffs=0 / crqpoffs=0 / rc=abr / bitrate=15000 / qcomp=0.60 / qpstep=1 / stats-write=0 / stats-read=2 / cplxblur=20.0 / qblur=0.5 / vbv-maxrate=18000 / vbv-bufsize=12000 / vbv-init=0.6 / min-vbv-fullness=50.0 / max-vbv-fullness=80.0 / vbv-end=0.6 / vbv-end-fr-adj=0.0 / ipratio=1.10 / pbratio=1.00 / aq-mode=0 / aq-strength=0.00 / no-cutree / zone-count=0 / no-strict-cbr / qg-size=32 / rc-grain / qpmax=69 / qpmin=0 / const-vbv / sar=0 / overscan=0 / videoformat=5 / range=0 / colorprim=1 / transfer=1 / colormatrix=1 / chromaloc=0 / display-window=0 / cll=0,0 / min-luma=0 / max-luma=255 / log2-max-poc-lsb=8 / vui-timing-info / vui-hrd-info / no-concatenation / slices=1 / no-opt-qp-pps / no-opt-ref-list-length-pps / no-multi-pass-opt-rps / scenecut-bias=0.05 / hist-threshold=0.03 / no-opt-cu-delta-qp / no-aq-motion / no-hdr10 / no-hdr10-opt / no-dhdr10-opt / no-idr-recovery-sei / analysis-reuse-level=0 / analysis-save-reuse-level=0 / analysis-load-reuse-level=0 / scale-factor=0 / refine-intra=0 / refine-inter=0 / refine-mv=1 / refine-ctu-distortion=0 / no-limit-sao / ctu-info=0 / no-lowpass-dct / refine-analysis-type=0 / copy-pic=1 / max-ausize-factor=1.0 / no-dynamic-refine / no-single-sei / no-hevc-aq / no-svt / no-field / qp-adaptation-range=1.00 / scenecut-aware-qp=0conformance-window-offsets / right=0 / bottom=0 / decoder-max-rate=0 / no-vbv-live-multi-pass
Default                        : Yes
Forced                         : No
Color range                    : Limited
Color primaries                : BT.709
Transfer characteristics       : BT.709
Matrix coefficients            : BT.709

Audio
ID                             : 2
Format                         : AC-3
Format/Info                    : Audio Coding 3
Commercial name                : Dolby Digital
Codec ID                       : A_AC3
Duration                       : 1 h 52 min
Bit rate mode                  : Constant
Bit rate                       : 384 kb/s
Channel(s)                     : 6 channels
Channel layout                 : L R C LFE Ls Rs
Sampling rate                  : 48.0 kHz
Frame rate                     : 31.250 FPS (1536 SPF)
Compression mode               : Lossy
Stream size                    : 309 MiB (3%)
Language                       : English
Service kind                   : Complete Main
Default                        : Yes
Forced                         : No

Text
ID                             : 3
Format                         : UTF-8
Codec ID                       : S_TEXT/UTF8
Codec ID/Info                  : UTF-8 Plain Text
Title                          : English
Language                       : English
Default                        : No
Forced                         : No


下载地址

游客,如果您要查看本帖隐藏内容请回复





上一篇:我们得做些什么/We Need To Do Something (2021) 4K高清版本下载/8.40GB
下一篇:旋转 / spin‎ (2021) 4K高清版本下载/15.35GB
回复

使用道具 举报

48

主题

1533

帖子

4411

积分

4K家园VIP

Rank: 9Rank: 9Rank: 9

积分
4411
发表于 2021-9-3 14:25:14 来自手机 | 显示全部楼层
介是神马?!!
回复 支持 反对

使用道具 举报

0

主题

12

帖子

111

积分

4K家园VIP

Rank: 9Rank: 9Rank: 9

积分
111
发表于 2021-9-3 15:14:00 | 显示全部楼层
中文字幕有吗?
回复 支持 反对

使用道具 举报

0

主题

90

帖子

181

积分

新手上路

Rank: 1

积分
181
发表于 2021-9-3 16:24:38 | 显示全部楼层
搬个板凳
回复

使用道具 举报

0

主题

90

帖子

181

积分

新手上路

Rank: 1

积分
181
发表于 2021-9-3 16:24:46 | 显示全部楼层

瓜子
回复 支持 反对

使用道具 举报

0

主题

90

帖子

181

积分

新手上路

Rank: 1

积分
181
发表于 2021-9-3 16:24:53 | 显示全部楼层
回复 支持 反对

使用道具 举报

0

主题

90

帖子

181

积分

新手上路

Rank: 1

积分
181
发表于 2021-9-3 16:25:02 | 显示全部楼层
回复 支持 反对

使用道具 举报

0

主题

90

帖子

181

积分

新手上路

Rank: 1

积分
181
发表于 2021-9-3 16:25:09 | 显示全部楼层
回复 支持 反对

使用道具 举报

0

主题

607

帖子

2118

积分

注册会员

Rank: 2

积分
2118
发表于 2021-9-4 14:27:14 | 显示全部楼层
谢谢楼主分享
回复 支持 反对

使用道具 举报

3

主题

1325

帖子

3997

积分

4K家园VIP

Rank: 9Rank: 9Rank: 9

积分
3997
发表于 2021-9-6 23:54:16 来自手机 | 显示全部楼层
多发些资源啊
回复 支持 反对

使用道具 举报

您需要登录后才可以回帖 登录 | 立即注册

本版积分规则

精彩图文
Archiver|手机版|TAG|Sitemap|新帖|专题|联系我们:邮箱: 4kjia.com@gmail.com   

4k家园   ©2019