[4Kjia独享4K资源] 抓马抓马 / Dramarama (2020) 4K高清版本下载/7.80GB

[复制链接]

872

主题

927

帖子

7961

积分

超级版主

Rank: 8Rank: 8

积分
7961
 楼主| 发表于 2021-9-6 22:12:23 | 显示全部楼层 |阅读模式
本帖最后由 最爱4K哟 于 2021-9-7 11:04 编辑

QQ图片20210906215119_副本.png

◎译  名 抓马抓马
◎片  名 Dramarama
◎年  代 2020
◎产  地 美国
◎类  别 喜剧 / 同性
◎语  言 英语
◎上映日期 2020-08-20(美国)
◎IMDb评分  6.9/10 from 133 users
◎IMDb链接  https://www.imdb.com/title/tt10534030/
◎豆瓣评分 0/10 from 0 users
◎豆瓣链接 https://movie.douban.com/subject/35185477/
◎片  长 91 分钟
◎导  演 乔纳森·威索奇
◎编  剧 乔纳森·威索奇
◎主  演 梅根苏瑞
                   妮可·格雷瑟姆
                   扎克亨利
                   安娜·格蕾丝·巴洛
                   尼克·普列斯
                   丹妮尔·凯


◎简  介


       1994年,一名密室少年在去上大学前的最后一次谋杀神秘派对上,与他的4位高中戏剧朋友奋力分手。
General
Complete name                  : E:\4K@电影 4K@MV\Dramarama.2021.2160p.WEB-DL.DD5.1.HEVC-EVO.mkv
Format                         : Matroska
Format version                 : Version 4
File size                      : 7.78 GiB
Duration                       : 1 h 30 min
Overall bit rate               : 12.3 Mb/s
Encoded date                   : UTC 2021-09-06 13:12:39
Writing application            : mkvmerge v19.0.0 ('Brave Captain') 64-bit
Writing library                : libebml v1.3.5 + libmatroska v1.4.8
IsTruncated                    : Yes

Video
ID                             : 1
Format                         : HEVC
Format/Info                    : High Efficiency Video Coding
Format profile                 : Main 10@L5@High
Codec ID                       : V_MPEGH/ISO/HEVC
Duration                       : 1 h 30 min
Bit rate                       : 11.6 Mb/s
Width                          : 3 840 pixels
Height                         : 2 030 pixels
Display aspect ratio           : 1.892
Frame rate mode                : Constant
Frame rate                     : 23.976 (24000/1001) FPS
Color space                    : YUV
Chroma subsampling             : 4:2:0
Bit depth                      : 10 bits
Bits/(Pixel*Frame)             : 0.062
Stream size                    : 7.38 GiB (95%)
Default                        : Yes
Forced                         : No
Color range                    : Limited
Color primaries                : BT.709
Transfer characteristics       : BT.709
Matrix coefficients            : BT.709

Audio
ID                             : 2
Format                         : AC-3
Format/Info                    : Audio Coding 3
Commercial name                : Dolby Digital
Codec ID                       : A_AC3
Duration                       : 1 h 30 min
Bit rate mode                  : Constant
Bit rate                       : 384 kb/s
Channel(s)                     : 6 channels
Channel layout                 : L R C LFE Ls Rs
Sampling rate                  : 48.0 kHz
Frame rate                     : 31.250 FPS (1536 SPF)
Compression mode               : Lossy
Stream size                    : 250 MiB (3%)
Title                          : English
Language                       : English
Service kind                   : Complete Main
Default                        : No
Forced                         : No

迅雷下载资源速度为零,资源敏感或被和谐时,推荐使用qBittorrent等无限速下载软件,有条件的推荐115更好的下载软件!

下载地址

游客,如果您要查看本帖隐藏内容请回复

****此区域为收费内容****    需支付 9 金币后可查看立即购买





上一篇:西区故事(内封中字) / West Side Story (1961) 4K高清版本下载/32.66GB
下一篇:血祭 / Blood Sacrifice (2021) 4K高清版本下载/7.48GB
回复

使用道具 举报

4

主题

1372

帖子

3960

积分

4K家园VIP

Rank: 9Rank: 9Rank: 9

积分
3960
发表于 2021-9-6 22:12:23 | 显示全部楼层
看起来不错
回复 支持 反对

使用道具 举报

3

主题

1610

帖子

4398

积分

4K家园VIP

Rank: 9Rank: 9Rank: 9

积分
4398
发表于 2021-9-6 22:12:23 | 显示全部楼层
没看懂
回复 支持 反对

使用道具 举报

1

主题

1243

帖子

3751

积分

4K家园VIP

Rank: 9Rank: 9Rank: 9

积分
3751
发表于 2021-9-6 22:12:24 | 显示全部楼层
回个帖子,下班咯~
回复 支持 反对

使用道具 举报

55

主题

1399

帖子

4073

积分

4K家园VIP

Rank: 9Rank: 9Rank: 9

积分
4073
发表于 2021-9-8 16:16:26 | 显示全部楼层
体验下4K版的
回复 支持 反对

使用道具 举报

0

主题

1313

帖子

3737

积分

中级会员

Rank: 4

积分
3737
发表于 2021-9-14 14:09:45 | 显示全部楼层
专业抢沙发的!哈哈
回复 支持 反对

使用道具 举报

您需要登录后才可以回帖 登录 | 立即注册

本版积分规则

精彩图文
Archiver|手机版|TAG|Sitemap|新帖|专题|联系我们:邮箱: 4kjia.com@gmail.com   

4k家园   ©2019