[4Kjia独享4K资源] 人人都在谈论杰米 (2021) 4K高清版本下载/12.59GB

[复制链接]

948

主题

1009

帖子

8533

积分

超级版主

Rank: 8Rank: 8

积分
8533
 楼主| 发表于 2021-9-17 10:15:38 | 显示全部楼层 |阅读模式
本帖最后由 最爱4K哟 于 2021-9-17 20:53 编辑

QQ图片20210917102356_副本.png

◎译  名 人人都在谈论杰米 / 人人都在聊杰米
◎片  名 Everybody's Talking About Jamie
◎年  代 2021
◎产  地 美国
◎类  别 剧情 / 同性 / 歌舞
◎语  言 英语
◎上映日期 2021-09-17(美国网络)
◎IMDb评分  5.5/10 from 356 users
◎IMDb链接  https://www.imdb.com/title/tt8635092/
◎豆瓣评分 0/10 from 0 users
◎豆瓣链接 https://movie.douban.com/subject/34432459/
◎片  长 115 分钟
◎导  演 乔纳森·巴特尔
◎编  剧 汤姆·麦克雷 / Dan Gillespie Sells
◎主  演 麦克斯·哈伍德
                   理查德·E·格兰特
                   莎朗·豪根
                   莎拉·兰卡夏尔
                   拉尔夫·伊内森
                   塞缪尔·博顿利
                   丽塔·梅
                   夏洛蒂·索尔特
                   阿迪勒·阿赫塔尔
                   约翰·麦克雷
                   露丝·霍洛克斯
                   莱顿·威廉姆斯
                   黄芬芬
                   尼克·欧文福特
                   劳伦·帕特尔
                   肖布纳·古拉蒂
                   拉姆赞·米亚
                   赞恩·阿尔萨罗里
                   Zion Battles
                   加雷思·乔伊纳
                   亚历克斯·安斯蒂
                   丹尼尔·华莱士
                   丹妮·皮


◎简  介



         根据真人经历改编,讲述16岁的杰米想成为一位变装皇后,却因此备受霸凌和歧视,在母亲和好友的支持下,他终于勇敢地去实现梦想。
General
Complete name                  : E:\4K@电影 4K@MV\Everybodys.Talking.About.Jamie.2021.HDR.2160p.AMZN.WEB-DL.DDP5.1.H265-EVO.mkv
Format                         : Matroska
Format version                 : Version 4
File size                      : 12.6 GiB
Duration                       : 1 h 55 min
Overall bit rate               : 15.6 Mb/s
Movie name                     : EVO
Encoded date                   : UTC 2021-09-17 00:37:07
Writing application            : mkvmerge v49.0.0 ('Sick Of Losing Soulmates') 64-bit
Writing library                : libebml v1.4.0 + libmatroska v1.6.1

Video
ID                             : 1
Format                         : HEVC
Format/Info                    : High Efficiency Video Coding
Format profile                 : Main 10@L5@Main
HDR format                     : SMPTE ST 2094 App 4, Version 1, HDR10+ Profile B compatible
Codec ID                       : V_MPEGH/ISO/HEVC
Duration                       : 1 h 55 min
Bit rate                       : 14.6 Mb/s
Width                          : 3 840 pixels
Height                         : 1 600 pixels
Display aspect ratio           : 2.40:1
Frame rate mode                : Constant
Frame rate                     : 24.000 FPS
Color space                    : YUV
Chroma subsampling             : 4:2:0
Bit depth                      : 10 bits
Bits/(Pixel*Frame)             : 0.099
Stream size                    : 11.8 GiB (94%)
Default                        : Yes
Forced                         : No
Color range                    : Limited
Color primaries                : BT.2020
Transfer characteristics       : PQ
Matrix coefficients            : BT.2020 non-constant
Mastering display color primar : Display P3
Mastering display luminance    : min: 0.0001 cd/m2, max: 1000 cd/m2
Maximum Content Light Level    : 691 cd/m2
Maximum Frame-Average Light Le : 466 cd/m2

Audio
ID                             : 2
Format                         : E-AC-3
Format/Info                    : Enhanced AC-3
Commercial name                : Dolby Digital Plus
Codec ID                       : A_EAC3
Duration                       : 1 h 55 min
Bit rate mode                  : Constant
Bit rate                       : 640 kb/s
Channel(s)                     : 6 channels
Channel layout                 : L R C LFE Ls Rs
Sampling rate                  : 48.0 kHz
Frame rate                     : 31.250 FPS (1536 SPF)
Compression mode               : Lossy
Stream size                    : 530 MiB (4%)
Language                       : English
Service kind                   : Complete Main
Default                        : No
Forced                         : No

Text
ID                             : 3
Format                         : UTF-8
Codec ID                       : S_TEXT/UTF8
Codec ID/Info                  : UTF-8 Plain Text
Title                          : English [CC]
Language                       : English
Default                        : No
Forced                         : No

Menu
00:00:00.000                   : de:Szene 1
00:00:06.000                   : de:Studio-Logos
00:00:45.000                   : de:Szene 3
00:10:50.000                   : de:Szene 4
00:12:34.000                   : de:Szene 5
00:20:01.000                   : de:Szene 6
00:28:44.000                   : de:Szene 7
00:31:58.000                   : de:Szene 8
00:32:51.000                   : de:Szene 9
00:43:26.000                   : de:Szene 10
00:46:00.000                   : de:Szene 11
00:49:46.000                   : de:Szene 12
00:50:58.000                   : de:Szene 13
00:57:18.000                   : de:Szene 14
01:06:30.000                   : de:Szene 15
01:10:15.000                   : de:Szene 16
01:11:41.000                   : de:Szene 17
01:14:00.000                   : de:Szene 18
01:20:39.000                   : de:Szene 19
01:21:42.000                   : de:Szene 20
01:28:25.000                   : de:Szene 21
01:30:56.000                   : de:Szene 22
01:36:17.000                   : de:Szene 23
01:48:14.000                   : de:Szene 24
01:49:07.000                   : de:Abspann

迅雷下载资源速度为零,资源敏感或被和谐时,推荐使用qBittorrent等无限速下载软件,有条件的推荐115更好的下载软件!

****此区域为收费内容****    需支付 9 金币后可查看立即购买

游客,如果您要查看本帖隐藏内容请回复

游客,如果您要查看本帖隐藏内容请回复





上一篇:糖果人 Candyman (2021) 4K高清版本下载/9.55GB
下一篇:无名旅馆 / The Nowhere Inn (2020) 4K高清版本下载/13.31GB
回复

使用道具 举报

201

主题

1671

帖子

4573

积分

4K家园VIP

Rank: 9Rank: 9Rank: 9

积分
4573
发表于 2021-9-17 10:15:42 | 显示全部楼层
试试先,好用再说
回复 支持 反对

使用道具 举报

1

主题

1378

帖子

3968

积分

中级会员

Rank: 4

积分
3968
发表于 2021-9-17 13:43:33 | 显示全部楼层
垃圾
回复 支持 反对

使用道具 举报

1

主题

1486

帖子

4306

积分

4K家园VIP

Rank: 9Rank: 9Rank: 9

积分
4306
发表于 2021-9-17 14:46:58 | 显示全部楼层
啊啊啊啊啊啊啊啊啊啊啊
回复 支持 反对

使用道具 举报

50

主题

1439

帖子

4089

积分

4K家园VIP

Rank: 9Rank: 9Rank: 9

积分
4089
发表于 2021-9-17 14:49:19 | 显示全部楼层
看起来好像不错的样子
回复 支持 反对

使用道具 举报

2

主题

1626

帖子

4464

积分

4K家园VIP

Rank: 9Rank: 9Rank: 9

积分
4464
发表于 2021-9-17 16:01:19 | 显示全部楼层
围观 围观 沙发在哪里!!!
回复 支持 反对

使用道具 举报

您需要登录后才可以回帖 登录 | 立即注册

本版积分规则

精彩图文
Archiver|手机版|TAG|Sitemap|新帖|专题|联系我们:邮箱: 4kjia.com@gmail.com   

4k家园   ©2019