[4K电影] People Just Do Nothing: Big in Japan (2020) 4K高清版本下载/10.01GB

[复制链接]

13

主题

1167

帖子

3473

积分

4K家园VIP

Rank: 9Rank: 9Rank: 9

积分
3473
 楼主| 发表于 2021-9-20 21:24:58 | 显示全部楼层 |阅读模式
本帖最后由 最爱4K哟 于 2021-9-22 09:56 编辑

999.png

◎片  名 People.Just.Do.Nothing.Big.in.Japan
◎年  代 2021
◎产  地 英国
◎类  别 喜剧
◎语  言 英语
◎上映日期 2021
◎IMDb评分  7.3/10 from 1005 users
◎IMDb链接  https://www.imdb.com/title/tt11376010/
◎豆瓣评分 0/10 from 0 users
◎豆瓣链接 https://movie.douban.com/subject/34960096/
◎片  长 96 分钟
◎导  演 杰克·克劳夫
◎编  剧 艾伦·穆斯塔法/史蒂夫·斯塔姆
◎主  演 阿西姆·乔杜里
                   艾伦·穆斯塔法
                   肯·山村


◎简  介

       自从他们的海盗电台结束以来,Kurupt FM男孩的生活一直很平静,但一切都将改变。有消息告诉他们,他们的一首歌已经在日本的一个流行游戏节目中使用。他们成功了。他们的音乐正在影响成千上万的人。他们终于到了享受名利的时候了,他们一直知道自己应得的名利。当格林达、贝茨、史蒂文斯和德科开始他们的国际明星之旅时,沙布迪G兴奋地回到了他的管理角色——但日本真的为库鲁普FM做好了准备吗?
General
Complete name                  : E:\4K@电影 4K@MV\People.Just.Do.Nothing.Big.in.Japan.2021.2160p.WEB-DL.DD5.1.HDR.HEVC-CMRG.mkv
Format                         : Matroska
Format version                 : Version 4
File size                      : 9.99 GiB
Duration                       : 1 h 36 min
Overall bit rate               : 14.8 Mb/s
Encoded date                   : UTC 2021-09-19 23:21:18
Writing application            : mkvmerge v60.0.0 ('Are We Copies?') 64-bit
Writing library                : libebml v1.4.2 + libmatroska v1.6.4
IsTruncated                    : Yes

Video
ID                             : 1
Format                         : HEVC
Format/Info                    : High Efficiency Video Coding
Format profile                 : Main 10@L5@High
HDR format                     : SMPTE ST 2086, HDR10 compatible
Codec ID                       : V_MPEGH/ISO/HEVC
Duration                       : 1 h 36 min
Bit rate                       : 14.1 Mb/s
Width                          : 3 832 pixels
Height                         : 1 596 pixels
Display aspect ratio           : 2.40:1
Frame rate mode                : Constant
Frame rate                     : 23.976 (24000/1001) FPS
Color space                    : YUV
Chroma subsampling             : 4:2:0 (Type 2)
Bit depth                      : 10 bits
Bits/(Pixel*Frame)             : 0.096
Stream size                    : 9.53 GiB (95%)
Default                        : Yes
Forced                         : No
Color range                    : Limited
Color primaries                : BT.2020
Transfer characteristics       : PQ
Matrix coefficients            : BT.2020 non-constant
Mastering display color primar : Display P3
Mastering display luminance    : min: 0.0050 cd/m2, max: 1000 cd/m2
Maximum Content Light Level    : 1000 cd/m2
Maximum Frame-Average Light Le : 43 cd/m2

Audio
ID                             : 2
Format                         : AC-3
Format/Info                    : Audio Coding 3
Commercial name                : Dolby Digital
Codec ID                       : A_AC3
Duration                       : 1 h 36 min
Bit rate mode                  : Constant
Bit rate                       : 384 kb/s
Channel(s)                     : 6 channels
Channel layout                 : L R C LFE Ls Rs
Sampling rate                  : 48.0 kHz
Frame rate                     : 31.250 FPS (1536 SPF)
Compression mode               : Lossy
Stream size                    : 266 MiB (3%)
Title                          : English
Language                       : English
Service kind                   : Complete Main
Default                        : No
Forced                         : No

Text
ID                             : 3
Format                         : UTF-8
Codec ID                       : S_TEXT/UTF8
Codec ID/Info                  : UTF-8 Plain Text
Title                          : English [Forced]
Language                       : English
Default                        : No
Forced                         : Yes


下载链接:


(10.01GB)People.Just.Do.Nothing.Big.in.Japan.2021.2160p.WEB-DL.x265.10bit.HDR..torrent (13.2 KB, 售价: 9 金币)

上一篇:Adams.Package (2021) 4K高清版本下载/6.94GB
下一篇:皮囊之下 / Under the Skin (2013) 4K高清版本下载/20.54GB
回复

使用道具 举报

46

主题

1460

帖子

4224

积分

4K家园VIP

Rank: 9Rank: 9Rank: 9

积分
4224
发表于 2021-9-20 21:25:02 | 显示全部楼层
4K家园不错,希望这种资源越多越好
回复 支持 反对

使用道具 举报

6

主题

1398

帖子

4038

积分

4K家园VIP

Rank: 9Rank: 9Rank: 9

积分
4038
发表于 2021-9-20 21:32:28 来自手机 | 显示全部楼层
前排支持下了哦~
回复 支持 反对

使用道具 举报

46

主题

1413

帖子

4075

积分

4K家园VIP

Rank: 9Rank: 9Rank: 9

积分
4075
发表于 2021-9-20 22:16:38 | 显示全部楼层
OMG!介是啥东东!!!
回复 支持 反对

使用道具 举报

46

主题

1425

帖子

4089

积分

4K家园VIP

Rank: 9Rank: 9Rank: 9

积分
4089
发表于 2021-9-20 22:36:37 | 显示全部楼层
试试看吧
回复 支持 反对

使用道具 举报

1

主题

1378

帖子

3968

积分

中级会员

Rank: 4

积分
3968
发表于 2021-9-21 01:24:29 | 显示全部楼层
支持,赞一个
回复 支持 反对

使用道具 举报

0

主题

27

帖子

203

积分

新手上路

Rank: 1

积分
203
发表于 2021-9-21 13:59:03 | 显示全部楼层
一句话总结:5傻闯东京
回复 支持 反对

使用道具 举报

您需要登录后才可以回帖 登录 | 立即注册

本版积分规则

精彩图文
Archiver|手机版|TAG|Sitemap|新帖|专题|联系我们:邮箱: 4kjia.com@gmail.com   

4k家园   ©2019