保留地之犬 / Reservation Dogs/ 第一季全8集 (2021) 4K高清下载

[复制链接]

28

主题

32

帖子

330

积分

版主

Rank: 7Rank: 7Rank: 7

积分
330
 楼主| 发表于 2021-9-22 10:38:16 | 显示全部楼层 |阅读模式
本帖最后由 美剧小虾 于 2021-9-29 14:25 编辑

p2672861680_副本.jpg

◎译  名 保留地之犬
◎片  名 Reservation Dogs
◎年  代 2021
◎产  地 美国
◎类  别 喜剧 / 犯罪
◎语  言 英语
◎上映日期 2021-08-09(美国)
◎IMDb评分  8.2/10 from 3637 users
◎IMDb链接  https://www.imdb.com/title/tt13623580/
◎豆瓣评分 0/10 from 0 users
◎豆瓣链接 https://movie.douban.com/subject/35284545/
◎集  数 8
◎导  演 塔伊加·维迪提 / 斯特林·哈乔
◎编  剧 斯特林·哈乔 / 塔伊加·维迪提
◎主  演 D'Pharaoh Woon-A-Tai
                   德芙丽·雅各布斯
                   Paulina Alexis
                   Lane Factor
                   Unegvugugu Amoadewehi  
                   梅肯·布莱尔  
                   Funny Bone
                   Mary C. Bruce
                   马修·卡德罗普
                   Lil Cory
                   科克福克斯
                   Dallas Goldtooth
                   Elva Guerra
                   Todd Jenkins
                   大卫·马尔登那多
                   扎恩·迈克拉农
                   塔玛拉·波戴米斯基



◎简  介


         塔伊加·维迪提将为FX再制作一部喜剧《救赎犬》(Reservation Dogs,暂译),每集半个小时,本剧讲述俄克拉荷马州小镇的四位印第安原住民少年,整天惹事的同时又打击犯罪的故事。试播集将由塔伊加·维迪提和斯特林·哈乔共同执导,他们同时担任编剧,维迪提还将出任监制之一。
General
Complete name                  : E:\4K@电影 4K@MV\Reservation.Dogs.S01E01.2160p.HULU.WEB-DL.DDP5.1.H.265-FLUX.mkv
Format                         : Matroska
Format version                 : Version 4
File size                      : 2.42 GiB
Duration                       : 29 min 9 s
Overall bit rate               : 11.9 Mb/s
Encoded date                   : UTC 2021-08-26 20:06:07
Writing application            : mkvmerge v59.0.0 ('Shining Star') 64-bit
Writing library                : libebml v1.4.2 + libmatroska v1.6.4
IsTruncated                    : Yes

Video
ID                             : 1
Format                         : HEVC
Format/Info                    : High Efficiency Video Coding
Format profile                 : Main 10@L5.1@Main
Codec ID                       : V_MPEGH/ISO/HEVC
Duration                       : 29 min 9 s
Bit rate                       : 11.4 Mb/s
Width                          : 3 840 pixels
Height                         : 2 160 pixels
Display aspect ratio           : 16:9
Frame rate mode                : Constant
Frame rate                     : 23.976 (24000/1001) FPS
Color space                    : YUV
Chroma subsampling             : 4:2:0
Bit depth                      : 10 bits
Bits/(Pixel*Frame)             : 0.057
Stream size                    : 2.32 GiB (96%)
Default                        : Yes
Forced                         : No

Audio
ID                             : 2
Format                         : E-AC-3
Format/Info                    : Enhanced AC-3
Commercial name                : Dolby Digital Plus
Codec ID                       : A_EAC3
Duration                       : 29 min 9 s
Bit rate mode                  : Constant
Bit rate                       : 256 kb/s
Channel(s)                     : 6 channels
Channel layout                 : L R C LFE Ls Rs
Sampling rate                  : 48.0 kHz
Frame rate                     : 31.250 FPS (1536 SPF)
Compression mode               : Lossy
Stream size                    : 53.4 MiB (2%)
Language                       : English
Service kind                   : Complete Main
Default                        : Yes
Forced                         : No

Text #1
ID                             : 3
Format                         : UTF-8
Codec ID                       : S_TEXT/UTF8
Codec ID/Info                  : UTF-8 Plain Text
Language                       : English
Default                        : No
Forced                         : No

Text #2
ID                             : 4
Format                         : UTF-8
Codec ID                       : S_TEXT/UTF8
Codec ID/Info                  : UTF-8 Plain Text
Title                          : SDH
Language                       : English
Default                        : No
Forced                         : No

Menu
00:08:00.000                   : Chapter 1
00:17:15.000                   : Chapter 2
00:22:53.000                   : Chapter 3
下载链接

保留地之犬(23.79GB)Reservation.Dogs.S01.2160p.HULU.WEBRip.DDP5.1.x265-FLUX.tor.torrent (31.04 KB, 售价: 9 金币)

上一篇:同舟共济(内嵌简繁中字)/ 第一季全7集 (2019) 4K高清下载
下一篇:凯瑟琳大帝 / The Great / 第一季全10集 (2020) 4K高清下载
回复

使用道具 举报

1

主题

1333

帖子

3841

积分

4K家园VIP

Rank: 9Rank: 9Rank: 9

积分
3841
发表于 2021-9-22 10:38:35 来自手机 | 显示全部楼层
支持,赞一个
回复 支持 反对

使用道具 举报

1

主题

1677

帖子

4639

积分

4K家园VIP

Rank: 9Rank: 9Rank: 9

积分
4639
发表于 2021-9-22 13:32:49 | 显示全部楼层
1v1飘过
回复 支持 反对

使用道具 举报

40

主题

1459

帖子

4181

积分

4K家园VIP

Rank: 9Rank: 9Rank: 9

积分
4181
发表于 2021-9-22 14:37:22 | 显示全部楼层
支持楼主,用户楼主,楼主英明呀!!!
回复 支持 反对

使用道具 举报

6

主题

1603

帖子

4397

积分

中级会员

Rank: 4

积分
4397
发表于 2021-9-22 15:37:29 | 显示全部楼层
没明白
回复 支持 反对

使用道具 举报

39

主题

1471

帖子

4205

积分

4K家园VIP

Rank: 9Rank: 9Rank: 9

积分
4205
发表于 2021-9-22 15:44:37 | 显示全部楼层
好帖必须得顶起
回复 支持 反对

使用道具 举报

您需要登录后才可以回帖 登录 | 立即注册

本版积分规则

精彩图文
Archiver|手机版|TAG|Sitemap|新帖|专题|联系我们:邮箱: 4kjia.com@gmail.com   

4k家园   ©2019