[国家地理] [4K 国家地理] 苏格兰斯凯岛 (2021) [2160P/MKV/285MB]

[复制链接]

2609

主题

2943

帖子

2万

积分

超级版主

Rank: 8Rank: 8

积分
24510
 楼主| 发表于 2021-10-29 11:11:55 | 显示全部楼层 |阅读模式

苏格兰斯凯岛(285MB) (2021) WEBRip 2160p.mkv_20211003_225837.547.jpg 苏格兰斯凯岛(285MB) (2021) WEBRip 2160p.mkv_20211003_225847.019.jpg 苏格兰斯凯岛(285MB) (2021) WEBRip 2160p.mkv_20211003_225903.426.jpg 苏格兰斯凯岛(285MB) (2021) WEBRip 2160p.mkv_20211003_225909.235.jpg 苏格兰斯凯岛(285MB) (2021) WEBRip 2160p.mkv_20211003_225916.234.jpg 苏格兰斯凯岛(285MB) (2021) WEBRip 2160p.mkv_20211003_225929.755.jpg

影片信息
片名:斯凯岛
上映时间: 2021
国家:苏格兰
时长: 00 : 02 : 10
类型: 物种
导演: Łukasz Skorupski

关于电影:

       斯凯岛,通过桥梁连接到西北海岸苏格兰以其严酷的风景、风景如画的渔村和中世纪城堡而闻名。

General
Complete name                  : E:\苏格兰斯凯岛(285MB) (2021) WEBRip 2160p.mkv
Format                         : Matroska
Format version                 : Version 4
File size                      : 285 MiB
Duration                       : 2 min 10 s
Overall bit rate               : 18.4 Mb/s
Encoded date                   : UTC 2021-09-23 16:41:53
Writing application            : mkvmerge v61.0.0 ('So') 64-bit
Writing library                : libebml v1.4.2 + libmatroska v1.6.4 / Lavf58.29.100

Video
ID                             : 1
Format                         : VP9
Codec ID                       : V_VP9
Duration                       : 2 min 9 s
Bit rate                       : 18.3 Mb/s
Width                          : 3 840 pixels
Height                         : 2 160 pixels
Display aspect ratio           : 16:9
Frame rate mode                : Constant
Frame rate                     : 29.970 FPS
Color space                    : YUV
Bits/(Pixel*Frame)             : 0.073
Stream size                    : 283 MiB (99%)
Default                        : Yes
Forced                         : No
Color range                    : Limited
Color primaries                : BT.709
Transfer characteristics       : BT.709
Matrix coefficients            : BT.709

Audio
ID                             : 2
Format                         : Opus
Codec ID                       : A_OPUS
Duration                       : 2 min 10 s
Bit rate                       : 142 kb/s
Channel(s)                     : 2 channels
Channel layout                 : L R
Sampling rate                  : 48.0 kHz
Frame rate                     : 50.006 FPS (960 SPF)
Bit depth                      : 32 bits
Compression mode               : Lossy
Stream size                    : 2.20 MiB (1%)
Default                        : Yes
Forced                         : No
下载地址

****此区域为收费内容****    需支付 15 金币后可查看立即购买







上一篇:[4K 国家地理] 魔力西班牙 (2021) [2160P/MKV/298MB]
下一篇:[4K 国家地理] 让我们一起去阿联酋 (2021) [2160P/MKV/254MB]
回复

使用道具 举报

40

主题

1450

帖子

4166

积分

4K家园VIP

Rank: 9Rank: 9Rank: 9

积分
4166
发表于 2021-10-29 11:11:59 来自手机 | 显示全部楼层
前排,哇咔咔
回复 支持 反对

使用道具 举报

0

主题

6676

帖子

1万

积分

4K家园VIP

Rank: 9Rank: 9Rank: 9

积分
15538
发表于 2021-10-29 11:32:54 | 显示全部楼层
蘇格蘭斯凱島4k
回复 支持 反对

使用道具 举报

2

主题

1264

帖子

3810

积分

4K家园VIP

Rank: 9Rank: 9Rank: 9

积分
3810
发表于 2021-10-29 22:39:20 | 显示全部楼层
大人,此事必有蹊跷!
回复 支持 反对

使用道具 举报

49

主题

1495

帖子

4317

积分

4K家园VIP

Rank: 9Rank: 9Rank: 9

积分
4317
发表于 2021-10-30 05:31:30 来自手机 | 显示全部楼层
不错 支持下
回复 支持 反对

使用道具 举报

0

主题

31

帖子

543

积分

新手上路

Rank: 1

积分
543
发表于 2021-10-30 10:56:33 | 显示全部楼层
谢谢谢谢谢谢谢谢
回复 支持 反对

使用道具 举报

1

主题

1340

帖子

3826

积分

4K家园VIP

Rank: 9Rank: 9Rank: 9

积分
3826
发表于 2021-10-31 15:57:56 | 显示全部楼层
前排顶起
回复 支持 反对

使用道具 举报

0

主题

1378

帖子

3986

积分

4K家园VIP

Rank: 9Rank: 9Rank: 9

积分
3986
发表于 2021-10-31 20:11:04 来自手机 | 显示全部楼层
向楼主学习
回复 支持 反对

使用道具 举报

0

主题

1316

帖子

4134

积分

中级会员

Rank: 4

积分
4134
发表于 2021-11-2 14:03:58 | 显示全部楼层
谢楼主分享资源
回复 支持 反对

使用道具 举报

0

主题

1316

帖子

4134

积分

中级会员

Rank: 4

积分
4134
发表于 2021-11-4 14:21:28 | 显示全部楼层
谢楼主分享
回复 支持 反对

使用道具 举报

您需要登录后才可以回帖 登录 | 立即注册

本版积分规则

精彩图文
Archiver|手机版|TAG|Sitemap|新帖|专题|联系我们:邮箱: 4kjia.com@gmail.com   

4k家园   ©2019