[4K电影] 断裂(内封中字) / Fractured (2019) 4K高清版本下载/8.55GB

[复制链接]

956

主题

1017

帖子

8614

积分

超级版主

Rank: 8Rank: 8

积分
8614
 楼主| 发表于 2021-10-5 20:55:48 | 显示全部楼层 |阅读模式
本帖最后由 最爱4K哟 于 2021-10-5 21:50 编辑

断裂.png

◎译  名 断裂/断线(台)/曲折(港)
◎片  名 Fractured
◎年  代 2019
◎产  地 美国
◎类  别 惊悚
◎语  言 英语
◎上映日期 2019-10-11(美国)
◎IMDb评分  6.4/10 from 64617 users
◎IMDb链接  https://www.imdb.com/title/tt4332232/
◎豆瓣评分 6.9/10 from 11850 users
◎豆瓣链接 https://movie.douban.com/subject/30366084/
◎片  长 100分钟
◎导  演 布拉德·安德森 Brad Anderson
◎编  剧 阿兰·B·麦克埃尔罗伊 Alan B. McElroy
◎主  演 萨姆·沃辛顿 Sam Worthington
      莉莉·拉贝 Lily Rabe
      斯蒂芬·托布罗斯基 Stephen Tobolowsky
      阿卓艾·安多 Adjoa Andoh
      德里克·詹姆斯·特拉普 Derek James Trapp
      威尔·沃伊托维希 Will Woytowich
      埃里克·阿塔瓦尔 Erik Athavale
      克里斯·西格森 Chris Sigurdson
      埃内斯托·格里菲思 Ernesto Griffith
      查德·布鲁斯 Chad Bruce
      吉姆·科比 Jim Kirby
      洛丽·帕帕佐普洛斯 Lorrie Papadopoulos


◎简  介

  雷·门罗(萨姆·沃辛顿饰)是一个好心但不堪重负的居家男人。在与岳父岳母度过一个紧张的假日周末后,雷带着妻子乔安妮(莉莉·拉贝饰)和女儿佩里(露西·卡普里饰)开车回家,途中驶入一个休息区。然而屋漏偏逢阴雨夜,佩里在事故中受伤。一家人急忙带着她来到附近一个急诊室,这里的工作人员看似有些意图可疑。被送去做进一步检测后,佩里与乔安妮失踪了,他们所有的访问记录也消失不见。雷的担忧成了真:他必须争分夺秒寻找家人,并搞清他们究竟遭遇了什么。
Video
ID : 1
Format : HEVC
Format/Info : High Efficiency Video Coding
Format profile : Main 10@L5.1@High
HDR format : SMPTE ST 2086, HDR10 compatible
Codec ID : V_MPEGH/ISO/HEVC
Duration : 1 h 39 min
Bit rate : 11.6 Mb/s
Width : 3 840 pixels
Height : 1 604 pixels
Display aspect ratio : 2.40:1
Frame rate mode : Constant
Frame rate : 24.000 FPS
Color space : YUV
Chroma subsampling : 4:2:0 (Type 2)
Bit depth : 10 bits
Bits/(Pixel*Frame) : 0.078
Stream size : 8.01 GiB (94%)
Writing library : x265 3.14f6dde51a5db:[Windows][GCC 6.3.0][64 bit] 10bit
Encoding settings : cpuid=1111039 / frame-threads=5 / numa-pools=12 / wpp / no-pmode / no-pme / no-psnr / no-ssim / log-level=2 / input-csp=1 / input-res=3840x1604 / interlace=0 / total-frames=142848 / level-idc=51 / high-tier=1 / uhd-bd=0 / ref=4 / no-allow-non-conformance / repeat-headers / annexb / aud / hrd / info / hash=0 / no-temporal-layers / no-open-gop / min-keyint=24 / keyint=240 / gop-lookahead=0 / bframes=4 / b-adapt=2 / b-pyramid / bframe-bias=0 / rc-lookahead=25 / lookahead-slices=4 / scenecut=40 / radl=0 / no-splice / no-intra-refresh / ctu=64 / min-cu-size=8 / rect / no-amp / max-tu-size=32 / tu-inter-depth=1 / tu-intra-depth=1 / limit-tu=0 / rdoq-level=2 / dynamic-rd=0.00 / no-ssim-rd / signhide / no-tskip / nr-intra=0 / nr-inter=0 / no-constrained-intra / no-strong-intra-smoothing / max-merge=3 / limit-refs=3 / limit-modes / me=3 / subme=3 / merange=57 / temporal-mvp / weightp / no-weightb / no-analyze-src-pics / deblock=-3:-3 / no-sao / no-sao-non-deblock / rd=4 / no-early-skip / rskip / no-fast-intra / no-tskip-fast / no-cu-lossless / no-b-intra / no-splitrd-skip / rdpenalty=0 / psy-rd=2.00 / psy-rdoq=1.00 / no-rd-refine / no-lossless / cbqpoffs=0 / crqpoffs=0 / rc=crf / crf=10.0 / qcomp=0.60 / qpstep=4 / stats-write=0 / stats-read=0 / vbv-maxrate=160000 / vbv-bufsize=160000 / vbv-init=0.9 / crf-max=0.0 / crf-min=0.0 / ipratio=1.40 / pbratio=1.30 / aq-mode=2 / aq-strength=1.00 / cutree / zone-count=0 / no-strict-cbr / qg-size=32 / no-rc-grain / qpmax=69 / qpmin=0 / no-const-vbv / sar=1 / overscan=0 / videoformat=5 / range=0 / colorprim=9 / transfer=16 / colormatrix=9 / chromaloc=1 / chromaloc-top=2 / chromaloc-bottom=2 / display-window=0 / master-display=G(13250,34500)B(7500,3000)R(34000,16000)WP(15635,16450)L(40000000,50)cll=738,130 / min-luma=0 / max-luma=1023 / log2-max-poc-lsb=8 / vui-timing-info / vui-hrd-info / slices=1 / no-opt-qp-pps / no-opt-ref-list-length-pps / no-multi-pass-opt-rps / scenecut-bias=0.05 / no-opt-cu-delta-qp / no-aq-motion / hdr / hdr-opt / no-dhdr10-opt / no-idr-recovery-sei / analysis-reuse-level=5 / scale-factor=0 / refine-intra=0 / refine-inter=0 / refine-mv=0 / refine-ctu-distortion=0 / no-limit-sao / ctu-info=0 / no-lowpass-dct / refine-analysis-type=0 / copy-pic=1 / max-ausize-factor=1.0 / no-dynamic-refine / no-single-sei / no-hevc-aq / no-svt / no-field / qp-adaptation-range=1.00
Default : Yes
Forced : No
Color range : Limited
Color primaries : BT.2020
Transfer characteristics : PQ
Matrix coefficients : BT.2020 non-constant
Mastering display color primaries : Display P3
Mastering display luminance : min: 0.0050 cd/m2, max: 4000 cd/m2
Maximum Content Light Level : 738 cd/m2
Maximum Frame-Average Light Level : 130 cd/m2

Audio
ID : 2
Format : E-AC-3 JOC
Format/Info : Enhanced AC-3 with Joint Object Coding
Commercial name : Dolby Digital Plus with Dolby Atmos
Codec ID : A_EAC3
Duration : 1 h 40 min
Bit rate mode : Constant
Bit rate : 768 kb/s
Channel(s) : 6 channels
Channel layout : L R C LFE Ls Rs
Sampling rate : 48.0 kHz
Frame rate : 31.250 FPS (1536 SPF)
Compression mode : Lossy
Delay relative to video : 24 ms
Stream size : 550 MiB (6%)
Title : English
Language : English
Service kind : Complete Main
Default : Yes
Forced : No
Complexity index : 16
Number of dynamic objects : 15
Bed channel count : 1 channel
Bed channel configuration : LFE

Text #1
ID : 3
Format : UTF-8
Codec ID : S_TEXT/UTF8
Codec ID/Info : UTF-8 Plain Text
Duration : 1 h 31 min
Bit rate : 65 b/s
Count of elements : 1406
Stream size : 43.9 KiB (0%)
Language : English
Default : No
Forced : No

Text #2
ID : 4
Format : UTF-8
Codec ID : S_TEXT/UTF8
Codec ID/Info : UTF-8 Plain Text
Duration : 1 h 35 min
Bit rate : 75 b/s
Count of elements : 1631
Stream size : 52.9 KiB (0%)
Title : SDH
Language : English
Default : No
Forced : No

Text #3
ID : 5
Format : UTF-8
Codec ID : S_TEXT/UTF8
Codec ID/Info : UTF-8 Plain Text
Duration : 1 h 32 min
Bit rate : 51 b/s
Count of elements : 1366
Stream size : 35.4 KiB (0%)
Title : Latin America
Language : Spanish
Default : No
Forced : No

Text #4
ID : 6
Format : UTF-8
Codec ID : S_TEXT/UTF8
Codec ID/Info : UTF-8 Plain Text
Duration : 1 h 31 min
Bit rate : 51 b/s
Count of elements : 1351
Stream size : 34.6 KiB (0%)
Language : Spanish
Default : No
Forced : No

Text #5
ID : 7
Format : UTF-8
Codec ID : S_TEXT/UTF8
Codec ID/Info : UTF-8 Plain Text
Duration : 1 h 31 min
Bit rate : 59 b/s
Count of elements : 1409
Stream size : 39.5 KiB (0%)
Title : Brazilian
Language : Portuguese
Default : No
Forced : No

Text #6
ID : 8
Format : UTF-8
Codec ID : S_TEXT/UTF8
Codec ID/Info : UTF-8 Plain Text
Duration : 1 h 32 min
Bit rate : 54 b/s
Count of elements : 1308
Stream size : 36.9 KiB (0%)
Language : German
Default : No
Forced : No

Text #7
ID : 9
Format : UTF-8
Codec ID : S_TEXT/UTF8
Codec ID/Info : UTF-8 Plain Text
Duration : 1 h 31 min
Bit rate : 62 b/s
Count of elements : 1378
Stream size : 41.9 KiB (0%)
Language : French
Default : No
Forced : No

Text #8
ID : 10
Format : UTF-8
Codec ID : S_TEXT/UTF8
Codec ID/Info : UTF-8 Plain Text
Duration : 1 h 37 min
Bit rate : 58 b/s
Count of elements : 1555
Stream size : 41.7 KiB (0%)
Title : 简体
Language : 中文
Default : No
Forced : No

Text #9
ID : 11
Format : UTF-8
Codec ID : S_TEXT/UTF8
Codec ID/Info : UTF-8 Plain Text
Duration : 1 h 31 min
Bit rate : 59 b/s
Count of elements : 1467
Stream size : 39.7 KiB (0%)
Title : 繁体
Language : 中文
Default : No
Forced : No

Text #10
ID : 12
Format : UTF-8
Codec ID : S_TEXT/UTF8
Codec ID/Info : UTF-8 Plain Text
Duration : 1 h 31 min
Bit rate : 104 b/s
Count of elements : 1409
Stream size : 69.7 KiB (0%)
Language : Arabic
Default : No
Forced : No

Text #11
ID : 13
Format : UTF-8
Codec ID : S_TEXT/UTF8
Codec ID/Info : UTF-8 Plain Text
Duration : 1 h 31 min
Bit rate : 54 b/s
Count of elements : 1380
Stream size : 36.3 KiB (0%)
Language : Czech
Default : No
Forced : No

Text #12
ID : 14
Format : UTF-8
Codec ID : S_TEXT/UTF8
Codec ID/Info : UTF-8 Plain Text
Duration : 1 h 31 min
Bit rate : 49 b/s
Count of elements : 1139
Stream size : 33.3 KiB (0%)
Language : Danish
Default : No
Forced : No

Text #13
ID : 15
Format : UTF-8
Codec ID : S_TEXT/UTF8
Codec ID/Info : UTF-8 Plain Text
Duration : 1 h 32 min
Bit rate : 84 b/s
Count of elements : 1387
Stream size : 57.8 KiB (0%)
Language : Greek
Default : No
Forced : No

Text #14
ID : 16
Format : UTF-8
Codec ID : S_TEXT/UTF8
Codec ID/Info : UTF-8 Plain Text
Duration : 1 h 31 min
Bit rate : 51 b/s
Count of elements : 1035
Stream size : 34.7 KiB (0%)
Language : Finnish
Default : No
Forced : No

Text #15
ID : 17
Format : UTF-8
Codec ID : S_TEXT/UTF8
Codec ID/Info : UTF-8 Plain Text
Duration : 1 h 31 min
Bit rate : 86 b/s
Count of elements : 1461
Stream size : 58.4 KiB (0%)
Language : Hebrew
Default : No
Forced : No

Text #16
ID : 18
Format : UTF-8
Codec ID : S_TEXT/UTF8
Codec ID/Info : UTF-8 Plain Text
Duration : 1 h 32 min
Bit rate : 159 b/s
Count of elements : 1418
Stream size : 109 KiB (0%)
Language : Hindi
Default : No
Forced : No

Text #17
ID : 19
Format : UTF-8
Codec ID : S_TEXT/UTF8
Codec ID/Info : UTF-8 Plain Text
Duration : 1 h 31 min
Bit rate : 51 b/s
Count of elements : 1417
Stream size : 34.5 KiB (0%)
Language : Hungarian
Default : No
Forced : No

Text #18
ID : 20
Format : UTF-8
Codec ID : S_TEXT/UTF8
Codec ID/Info : UTF-8 Plain Text
Duration : 1 h 31 min
Bit rate : 48 b/s
Count of elements : 1345
Stream size : 32.1 KiB (0%)
Language : Indonesian
Default : No
Forced : No

Text #19
ID : 21
Format : UTF-8
Codec ID : S_TEXT/UTF8
Codec ID/Info : UTF-8 Plain Text
Duration : 1 h 31 min
Bit rate : 50 b/s
Count of elements : 1342
Stream size : 34.0 KiB (0%)
Language : Italian
Default : No
Forced : No

Text #20
ID : 22
Format : UTF-8
Codec ID : S_TEXT/UTF8
Codec ID/Info : UTF-8 Plain Text
Duration : 1 h 32 min
Bit rate : 53 b/s
Count of elements : 1357
Stream size : 36.2 KiB (0%)
Language : Japanese
Default : No
Forced : No

Text #21
ID : 23
Format : UTF-8
Codec ID : S_TEXT/UTF8
Codec ID/Info : UTF-8 Plain Text
Duration : 1 h 31 min
Bit rate : 69 b/s
Count of elements : 1405
Stream size : 46.5 KiB (0%)
Language : Korean
Default : No
Forced : No

Text #22
ID : 24
Format : UTF-8
Codec ID : S_TEXT/UTF8
Codec ID/Info : UTF-8 Plain Text
Duration : 1 h 31 min
Bit rate : 48 b/s
Count of elements : 1356
Stream size : 32.4 KiB (0%)
Language : Norwegian Bokmal
Default : No
Forced : No

Text #23
ID : 25
Format : UTF-8
Codec ID : S_TEXT/UTF8
Codec ID/Info : UTF-8 Plain Text
Duration : 1 h 31 min
Bit rate : 50 b/s
Count of elements : 1087
Stream size : 33.9 KiB (0%)
Language : Dutch
Default : No
Forced : No

Text #24
ID : 26
Format : UTF-8
Codec ID : S_TEXT/UTF8
Codec ID/Info : UTF-8 Plain Text
Duration : 1 h 32 min
Bit rate : 47 b/s
Count of elements : 1367
Stream size : 32.6 KiB (0%)
Language : Polish
Default : No
Forced : No

Text #25
ID : 27
Format : UTF-8
Codec ID : S_TEXT/UTF8
Codec ID/Info : UTF-8 Plain Text
Duration : 1 h 32 min
Bit rate : 57 b/s
Count of elements : 1404
Stream size : 39.1 KiB (0%)
Language : Portuguese
Default : No
Forced : No

Text #26
ID : 28
Format : UTF-8
Codec ID : S_TEXT/UTF8
Codec ID/Info : UTF-8 Plain Text
Duration : 1 h 31 min
Bit rate : 62 b/s
Count of elements : 1409
Stream size : 41.9 KiB (0%)
Language : Romanian
Default : No
Forced : No

Text #27
ID : 29
Format : UTF-8
Codec ID : S_TEXT/UTF8
Codec ID/Info : UTF-8 Plain Text
Duration : 1 h 31 min
Bit rate : 89 b/s
Count of elements : 1328
Stream size : 59.8 KiB (0%)
Language : Russian
Default : No
Forced : No

Text #28
ID : 30
Format : UTF-8
Codec ID : S_TEXT/UTF8
Codec ID/Info : UTF-8 Plain Text
Duration : 1 h 31 min
Bit rate : 53 b/s
Count of elements : 1231
Stream size : 35.7 KiB (0%)
Language : Swedish
Default : No
Forced : No

Text #29
ID : 31
Format : UTF-8
Codec ID : S_TEXT/UTF8
Codec ID/Info : UTF-8 Plain Text
Duration : 1 h 31 min
Bit rate : 165 b/s
Count of elements : 1420
Stream size : 111 KiB (0%)
Language : Thai
Default : No
Forced : No

Text #30
ID : 32
Format : UTF-8
Codec ID : S_TEXT/UTF8
Codec ID/Info : UTF-8 Plain Text
Duration : 1 h 31 min
Bit rate : 52 b/s
Count of elements : 1297
Stream size : 35.4 KiB (0%)
Language : Turkish
Default : No
Forced : No

Text #31
ID : 33
Format : UTF-8
Codec ID : S_TEXT/UTF8
Codec ID/Info : UTF-8 Plain Text
Duration : 1 h 31 min
Bit rate : 84 b/s
Count of elements : 1416
Stream size : 56.3 KiB (0%)
Language : Vietnamese
Default : No
Forced : No

迅雷下载资源速度为零,资源敏感或被和谐时,推荐使用qBittorrent等无限速下载软件,有条件的推荐115更好的下载软件!

下载地址   

游客,如果您要查看本帖隐藏内容请回复






上一篇:八年级 / Eighth Grade‎ (2018) 4K高清版本下载/12.11GB
下一篇:诡屋惊魂(内封中字) (2021) 4K高清版本下载/11.09GB
回复

使用道具 举报

3

主题

1622

帖子

4434

积分

4K家园VIP

Rank: 9Rank: 9Rank: 9

积分
4434
发表于 2021-10-5 20:55:54 | 显示全部楼层
4K版的应该更清晰吧
回复 支持 反对

使用道具 举报

40

主题

1441

帖子

4127

积分

4K家园VIP

Rank: 9Rank: 9Rank: 9

积分
4127
发表于 2021-10-6 23:39:42 | 显示全部楼层
是爷们的娘们的都帮顶!大力支持
回复 支持 反对

使用道具 举报

0

主题

2

帖子

23

积分

新手上路

Rank: 1

积分
23
发表于 2021-10-8 02:02:45 | 显示全部楼层
过的无

回复

使用道具 举报

1

主题

1187

帖子

3579

积分

4K家园VIP

Rank: 9Rank: 9Rank: 9

积分
3579
发表于 2021-10-10 04:06:46 来自手机 | 显示全部楼层
啥玩应呀
回复 支持 反对

使用道具 举报

57

主题

1490

帖子

4320

积分

4K家园VIP

Rank: 9Rank: 9Rank: 9

积分
4320
发表于 2021-10-10 22:04:07 | 显示全部楼层
正好需要啊
回复 支持 反对

使用道具 举报

0

主题

1318

帖子

3966

积分

4K家园VIP

Rank: 9Rank: 9Rank: 9

积分
3966
发表于 2021-10-11 02:21:28 | 显示全部楼层
OMG!介是啥东东!!!
回复 支持 反对

使用道具 举报

0

主题

56

帖子

113

积分

新手上路

Rank: 1

积分
113
发表于 2021-10-12 21:55:12 | 显示全部楼层

Where is Administration 4kjia.com?

Can I contact admin??
I'ts important.
Thanks.
回复 支持 反对

使用道具 举报

0

主题

7

帖子

30

积分

新手上路

Rank: 1

积分
30
发表于 2021-10-14 15:07:14 | 显示全部楼层
土土土土土土土土土

回复 支持 反对

使用道具 举报

您需要登录后才可以回帖 登录 | 立即注册

本版积分规则

精彩图文
Archiver|手机版|TAG|Sitemap|新帖|专题|联系我们:邮箱: 4kjia.com@gmail.com   

4k家园   ©2019