[4KMV] 2021 KANGDANIEL - PARANOIA 4k [2160P/MP4/259MB]

[复制链接]

2610

主题

2944

帖子

2万

积分

超级版主

Rank: 8Rank: 8

积分
24527
 楼主| 发表于 2021-10-18 12:34:01 | 显示全部楼层 |阅读模式
本帖最后由 叽里呱啦 于 2021-10-6 22:29 编辑

2021 KANGDANIEL - PARANOIA 4k.mp4_20211006_222231.364.jpg 2021 KANGDANIEL - PARANOIA 4k.mp4_20211006_222258.396.jpg 2021 KANGDANIEL - PARANOIA 4k.mp4_20211006_222304.348.jpg 2021 KANGDANIEL - PARANOIA 4k.mp4_20211006_222310.341.jpg 2021 KANGDANIEL - PARANOIA 4k.mp4_20211006_222322.979.jpg 2021 KANGDANIEL - PARANOIA 4k.mp4_20211006_222341.035.jpg

General
Complete name                  : E:\4K@MV\最新下载MV\2021 KANGDANIEL - PARANOIA 4k.mp4
Format                         : MPEG-4
Format profile                 : Base Media
Codec ID                       : isom (isom/iso2/avc1/mp41)
File size                      : 259 MiB
Duration                       : 3 min 18 s
Overall bit rate               : 11.0 Mb/s
Writing application            : Lavf58.12.100
exvr                           : EX1.8.2(C1.0.9)

Video
ID                             : 1
Format                         : AVC
Format/Info                    : Advanced Video Codec
Format profile                 : High@L5.1
Format settings                : CABAC / 4 Ref Frames
Format settings, CABAC         : Yes
Format settings, Reference fra : 4 frames
Codec ID                       : avc1
Codec ID/Info                  : Advanced Video Coding
Duration                       : 3 min 18 s
Bit rate                       : 10.8 Mb/s
Width                          : 3 840 pixels
Height                         : 2 160 pixels
Display aspect ratio           : 16:9
Frame rate mode                : Constant
Frame rate                     : 23.976 (23976/1000) FPS
Color space                    : YUV
Chroma subsampling             : 4:2:0
Bit depth                      : 8 bits
Scan type                      : Progressive
Bits/(Pixel*Frame)             : 0.054
Stream size                    : 254 MiB (98%)
Codec configuration box        : avcC

Audio
ID                             : 2
Format                         : AAC LC
Format/Info                    : Advanced Audio Codec Low Complexity
Codec ID                       : mp4a-40-2
Duration                       : 3 min 18 s
Bit rate mode                  : Constant
Bit rate                       : 192 kb/s
Channel(s)                     : 2 channels
Channel layout                 : L R
Sampling rate                  : 48.0 kHz
Frame rate                     : 46.875 FPS (1024 SPF)
Compression mode               : Lossy
Stream size                    : 4.54 MiB (2%)
Default                        : Yes
Alternate group                : 1

网盘下载失效不补:链接: https://pan.baidu.com/s/1Gr-goPPSzZJDBk1ZBwM-0g 提取码:
****此区域为收费内容****    需支付 15 金币后可查看立即购买






上一篇:[4KMV] 2021 KANGDANIEL - PARANOIA [Special Performance] 4k [2160P/MP4/374MB]
下一篇:[4KMV] 2021 KISSXS - Love Is Callin 4k [2160P /MP4/248MB]
回复

使用道具 举报

1

主题

1558

帖子

4276

积分

4K家园VIP

Rank: 9Rank: 9Rank: 9

积分
4276
发表于 2021-10-18 12:34:11 来自手机 | 显示全部楼层
大人,此事必有蹊跷!
回复 支持 反对

使用道具 举报

3

主题

1571

帖子

4307

积分

4K家园VIP

Rank: 9Rank: 9Rank: 9

积分
4307
发表于 2021-10-19 00:45:38 | 显示全部楼层
一直在看
回复 支持 反对

使用道具 举报

4

主题

1621

帖子

4463

积分

4K家园VIP

Rank: 9Rank: 9Rank: 9

积分
4463
发表于 2021-10-19 02:00:23 | 显示全部楼层
好,很好,非常好!
回复 支持 反对

使用道具 举报

2

主题

1305

帖子

3931

积分

4K家园VIP

Rank: 9Rank: 9Rank: 9

积分
3931
发表于 2021-10-21 02:23:34 来自手机 | 显示全部楼层
一直在看
回复 支持 反对

使用道具 举报

0

主题

1254

帖子

3778

积分

4K家园VIP

Rank: 9Rank: 9Rank: 9

积分
3778
发表于 2021-10-21 08:24:00 | 显示全部楼层
感谢楼主发帖,前排顶起
回复 支持 反对

使用道具 举报

您需要登录后才可以回帖 登录 | 立即注册

本版积分规则

精彩图文
Archiver|手机版|TAG|Sitemap|新帖|专题|联系我们:邮箱: 4kjia.com@gmail.com   

4k家园   ©2019