[4KMV] 2021 KISSXS - Love Is Callin 4k [2160P /MP4/248MB]

[复制链接]

2610

主题

2944

帖子

2万

积分

超级版主

Rank: 8Rank: 8

积分
24527
 楼主| 发表于 2021-10-23 19:03:31 | 显示全部楼层 |阅读模式
2021 KISSXS - Love Is Callin 4k.mp4_20211006_223046.795.jpg 2021 KISSXS - Love Is Callin 4k.mp4_20211006_223120.906.jpg 2021 KISSXS - Love Is Callin 4k.mp4_20211006_223130.579.jpg 2021 KISSXS - Love Is Callin 4k.mp4_20211006_223140.803.jpg 2021 KISSXS - Love Is Callin 4k.mp4_20211006_223152.236.jpg 2021 KISSXS - Love Is Callin 4k.mp4_20211006_223202.363.jpg
General
Complete name                  : E:\4K4K@MV\最新下载MV\2021 KISSXS - Love Is Callin 4k.mp4
Format                         : MPEG-4
Format profile                 : Base Media
Codec ID                       : isom (isom/iso2/avc1/mp41)
File size                      : 248 MiB
Duration                       : 3 min 3 s
Overall bit rate               : 11.3 Mb/s
Writing application            : Lavf58.12.100
exvr                           : EX1.8.2(C1.0.9)

Video
ID                             : 1
Format                         : AVC
Format/Info                    : Advanced Video Codec
Format profile                 : High@L5.1
Format settings                : CABAC / 4 Ref Frames
Format settings, CABAC         : Yes
Format settings, Reference fra : 4 frames
Codec ID                       : avc1
Codec ID/Info                  : Advanced Video Coding
Duration                       : 3 min 3 s
Bit rate                       : 11.1 Mb/s
Width                          : 3 840 pixels
Height                         : 2 160 pixels
Display aspect ratio           : 16:9
Frame rate mode                : Constant
Frame rate                     : 23.976 (23976/1000) FPS
Color space                    : YUV
Chroma subsampling             : 4:2:0
Bit depth                      : 8 bits
Scan type                      : Progressive
Bits/(Pixel*Frame)             : 0.056
Stream size                    : 244 MiB (98%)
Color range                    : Limited
Color primaries                : BT.709
Transfer characteristics       : BT.709
Matrix coefficients            : BT.709
Codec configuration box        : avcC

Audio
ID                             : 2
Format                         : AAC LC
Format/Info                    : Advanced Audio Codec Low Complexity
Codec ID                       : mp4a-40-2
Duration                       : 3 min 3 s
Bit rate mode                  : Constant
Bit rate                       : 192 kb/s
Channel(s)                     : 2 channels
Channel layout                 : L R
Sampling rate                  : 48.0 kHz
Frame rate                     : 46.875 FPS (1024 SPF)
Compression mode               : Lossy
Stream size                    : 4.20 MiB (2%)
Default                        : Yes
Alternate group                : 1

网盘下载失效不补:链接: https://pan.baidu.com/s/1JJZ5DBqJtBSMV3mr5XoglA 提取码:
****此区域为收费内容****    需支付 15 金币后可查看立即购买





上一篇:[4KMV] 2021 KANGDANIEL - PARANOIA 4k [2160P/MP4/259MB]
下一篇:[4KMV] 2021 IU - LILAC (Bugs) [2160P /MP4/818MB]
回复

使用道具 举报

3

主题

1251

帖子

3771

积分

4K家园VIP

Rank: 9Rank: 9Rank: 9

积分
3771
发表于 2021-10-23 19:03:36 | 显示全部楼层
very good
回复 支持 反对

使用道具 举报

0

主题

11

帖子

40

积分

新手上路

Rank: 1

积分
40
发表于 2021-10-26 14:02:49 | 显示全部楼层
支持一下楼主发表的内容
回复 支持 反对

使用道具 举报

0

主题

1649

帖子

4497

积分

4K家园VIP

Rank: 9Rank: 9Rank: 9

积分
4497
发表于 2021-10-28 16:02:10 | 显示全部楼层
支持,赞一个
回复 支持 反对

使用道具 举报

1

主题

1119

帖子

3377

积分

4K家园VIP

Rank: 9Rank: 9Rank: 9

积分
3377
发表于 2021-11-4 12:16:25 来自手机 | 显示全部楼层
支持你哈...................................
回复 支持 反对

使用道具 举报

0

主题

1118

帖子

3368

积分

4K家园VIP

Rank: 9Rank: 9Rank: 9

积分
3368
发表于 2021-11-7 04:26:21 | 显示全部楼层
试试看吧
回复 支持 反对

使用道具 举报

30

主题

1188

帖子

3542

积分

4K家园VIP

Rank: 9Rank: 9Rank: 9

积分
3542
发表于 2021-11-17 16:21:23 | 显示全部楼层
好,很好,非常好!
回复 支持 反对

使用道具 举报

您需要登录后才可以回帖 登录 | 立即注册

本版积分规则

精彩图文
Archiver|手机版|TAG|Sitemap|新帖|专题|联系我们:邮箱: 4kjia.com@gmail.com   

4k家园   ©2019