[4KMV] 2021 IU - LILAC (Bugs) [2160P /MP4/818MB]

[复制链接]

2610

主题

2944

帖子

2万

积分

超级版主

Rank: 8Rank: 8

积分
24527
 楼主| 发表于 2021-10-21 13:52:25 | 显示全部楼层 |阅读模式
2021 IU - LILAC (Bugs).mp4_20211006_224211.986.jpg 2021 IU - LILAC (Bugs).mp4_20211006_224218.970.jpg 2021 IU - LILAC (Bugs).mp4_20211006_224257.881.jpg 2021 IU - LILAC (Bugs).mp4_20211006_224325.081.jpg 2021 IU - LILAC (Bugs).mp4_20211006_224337.914.jpg 2021 IU - LILAC (Bugs).mp4_20211006_224426.626.jpg
General
Complete name                  : E:\4K@MV\最新下载MV\2021 IU - LILAC (Bugs).mp4
Format                         : MPEG-4
Format profile                 : Base Media / Version 2
Codec ID                       : mp42 (mp42/mp41)
File size                      : 819 MiB
Duration                       : 4 min 39 s
Overall bit rate mode          : Variable
Overall bit rate               : 24.6 Mb/s
Encoded date                   : UTC 2021-03-24 08:40:12
Tagged date                    : UTC 2021-03-24 08:40:19
TIM                            : 00:00:00:00
TSC                            : 24000
TSZ                            : 1001

Video
ID                             : 1
Format                         : AVC
Format/Info                    : Advanced Video Codec
Format profile                 : Main@L5.1
Format settings                : CABAC / 3 Ref Frames
Format settings, CABAC         : Yes
Format settings, Reference fra : 3 frames
Format settings, GOP           : M=1, N=30
Codec ID                       : avc1
Codec ID/Info                  : Advanced Video Coding
Duration                       : 4 min 39 s
Bit rate                       : 24.3 Mb/s
Width                          : 3 840 pixels
Height                         : 2 160 pixels
Display aspect ratio           : 16:9
Frame rate mode                : Constant
Frame rate                     : 23.976 (24000/1001) FPS
Color space                    : YUV
Chroma subsampling             : 4:2:0
Bit depth                      : 8 bits
Scan type                      : Progressive
Bits/(Pixel*Frame)             : 0.122
Stream size                    : 808 MiB (99%)
Language                       : English
Encoded date                   : UTC 2021-03-24 08:40:12
Tagged date                    : UTC 2021-03-24 08:40:12
Codec configuration box        : avcC

Audio
ID                             : 2
Format                         : AAC LC
Format/Info                    : Advanced Audio Codec Low Complexity
Codec ID                       : mp4a-40-2
Duration                       : 4 min 39 s
Source duration                : 4 min 39 s
Bit rate mode                  : Variable
Bit rate                       : 317 kb/s
Maximum bit rate               : 411 kb/s
Channel(s)                     : 2 channels
Channel layout                 : L R
Sampling rate                  : 48.0 kHz
Frame rate                     : 46.875 FPS (1024 SPF)
Compression mode               : Lossy
Stream size                    : 10.6 MiB (1%)
Source stream size             : 10.6 MiB (1%)
Language                       : English
Encoded date                   : UTC 2021-03-24 08:40:12
Tagged date                    : UTC 2021-03-24 08:40:12

网盘下载失效不补:链接: https://pan.baidu.com/s/1hD0CXBSnn7eOR5bMQ3NVxQ 提取码:
****此区域为收费内容****    需支付 15 金币后可查看立即购买






上一篇:[4KMV] 2021 KISSXS - Love Is Callin 4k [2160P /MP4/248MB]
下一篇:[4KMV] 2021 Karol G feat. Mariah Angeliq – El Makinon [2160P /MP4/1.19GB]
回复

使用道具 举报

1

主题

1627

帖子

4497

积分

4K家园VIP

Rank: 9Rank: 9Rank: 9

积分
4497
发表于 2021-10-21 13:52:31 | 显示全部楼层
围观 围观 沙发在哪里!!!
回复 支持 反对

使用道具 举报

54

主题

1443

帖子

4173

积分

4K家园VIP

Rank: 9Rank: 9Rank: 9

积分
4173
发表于 2021-10-22 15:00:06 | 显示全部楼层
撸过
回复 支持 反对

使用道具 举报

53

主题

1469

帖子

4275

积分

4K家园VIP

Rank: 9Rank: 9Rank: 9

积分
4275
发表于 2021-10-23 01:51:35 | 显示全部楼层
我也是坐沙发的
回复 支持 反对

使用道具 举报

1

主题

1344

帖子

3878

积分

4K家园VIP

Rank: 9Rank: 9Rank: 9

积分
3878
发表于 2021-10-24 23:03:21 来自手机 | 显示全部楼层
感谢分享
回复 支持 反对

使用道具 举报

2

主题

1124

帖子

3390

积分

4K家园VIP

Rank: 9Rank: 9Rank: 9

积分
3390
发表于 2021-10-30 00:15:36 | 显示全部楼层
鼎力支持!!
回复 支持 反对

使用道具 举报

您需要登录后才可以回帖 登录 | 立即注册

本版积分规则

精彩图文
Archiver|手机版|TAG|Sitemap|新帖|专题|联系我们:邮箱: 4kjia.com@gmail.com   

4k家园   ©2019