[4K电影] 老亨利 / Old Henry (2021) 4K高清版本下载/16.98GB

[复制链接]

948

主题

1009

帖子

8533

积分

超级版主

Rank: 8Rank: 8

积分
8533
 楼主| 发表于 2021-10-8 21:40:32 | 显示全部楼层 |阅读模式
本帖最后由 最爱4K哟 于 2021-10-8 22:19 编辑

QQ图片20211008215629_副本.png

◎译  名 老亨利
◎片  名 Old Henry
◎年  代 2021
◎产  地 美国
◎类  别 剧情 / 动作 / 犯罪 / 西部
◎语  言 英语
◎上映日期 2021-09-07(威尼斯电影节)
◎IMDb评分  7.5/10 from 177 users
◎IMDb链接  https://www.imdb.com/title/tt12731980/
◎豆瓣评分 0/10 from 0 users
◎豆瓣链接 https://movie.douban.com/subject/35442458/
◎片  长 99分钟
◎导  演 帕塔诗·蓬西里 Potsy Ponciroli
◎编  剧 帕塔诗·蓬西里 Potsy Ponciroli
◎主  演 斯蒂芬·多尔夫 Stephen Dorff
      蒂姆·布雷克·尼尔森 Tim Blake Nelson
      小理察·斯贝特 Richard Speight Jr.
      马克斯·阿西涅加 Max Arciniega
      斯科特·黑兹 Scott Haze
      布拉德·卡特 Brad Carter
      特雷斯·阿德金斯 Trace Adkins
      加文·刘易斯 Gavin Lewis



◎简  介

  一个农民带着一包现金收留一名受伤男子的故事。当一队人来要钱时,他必须决定信任谁。在防御围攻时,他展现了一个持枪的天才,他的真实身份受到了质疑。
Video
ID : 1
Format : HEVC
Format/Info : High Efficiency Video Coding
Format profile : Main 10@L5@High
HDR format : SMPTE ST 2086, HDR10 compatible
Codec ID : V_MPEGH/ISO/HEVC
Duration : 1 h 38 min
Bit rate : 24.3 Mb/s
Width : 3 832 pixels
Height : 1 436 pixels
Display aspect ratio : 2.669
Frame rate mode : Constant
Frame rate : 23.976 FPS
Color space : YUV
Chroma subsampling : 4:2:0 (Type 2)
Bit depth : 10 bits
Bits/(Pixel*Frame) : 0.184
Stream size : 16.7 GiB (98%)
Default : Yes
Forced : No
Color range : Limited
Color primaries : BT.2020
Transfer characteristics : PQ
Matrix coefficients : BT.2020 non-constant
Mastering display color primaries : Display P3
Mastering display luminance : min: 0.0000 cd/m2, max: 200 cd/m2
Maximum Content Light Level : 574 cd/m2
Maximum Frame-Average Light Level : 111 cd/m2

Audio
ID : 2
Format : AC-3
Format/Info : Audio Coding 3
Commercial name : Dolby Digital
Codec ID : A_AC3
Duration : 1 h 38 min
Bit rate mode : Constant
Bit rate : 384 kb/s
Channel(s) : 6 channels
Channel layout : L R C LFE Ls Rs
Sampling rate : 48.0 kHz
Frame rate : 31.250 FPS (1536 SPF)
Compression mode : Lossy
Stream size : 271 MiB (2%)
Title : English
Language : English
Service kind : Complete Main
Default : No
Forced : No

Text
ID : 3
Format : UTF-8
Codec ID : S_TEXT/UTF8
Codec ID/Info : UTF-8 Plain Text
Duration : 1 h 32 min
Bit rate : 34 b/s
Count of elements : 784
Stream size : 23.0 KiB (0%)
Language : English
Default : Yes
Forced : No

迅雷下载资源速度为零,资源敏感或被和谐时,推荐使用qBittorrent等无限速下载软件,有条件的推荐115更好的下载软件!


游客,如果您要查看本帖隐藏内容请回复

游客,如果您要查看本帖隐藏内容请回复







上一篇:死亡来临 / South of Heaven (2021) 4K高清版本下载/10.40GB
下一篇:为地球奋斗奖:拯救我们的星球 (2021)第一季全5集/4K高清下载
回复

使用道具 举报

1

主题

1330

帖子

3796

积分

4K家园VIP

Rank: 9Rank: 9Rank: 9

积分
3796
发表于 2021-10-8 21:40:36 | 显示全部楼层
体验下4K版的
回复 支持 反对

使用道具 举报

3

主题

1333

帖子

3845

积分

4K家园VIP

Rank: 9Rank: 9Rank: 9

积分
3845
发表于 2021-10-8 22:43:27 | 显示全部楼层
正好需要啊
回复 支持 反对

使用道具 举报

55

主题

1425

帖子

4129

积分

4K家园VIP

Rank: 9Rank: 9Rank: 9

积分
4129
发表于 2021-10-9 00:34:06 | 显示全部楼层
纯粹路过,没任何兴趣,仅仅是看在老用户份上回复一下
回复 支持 反对

使用道具 举报

1

主题

1328

帖子

3836

积分

4K家园VIP

Rank: 9Rank: 9Rank: 9

积分
3836
发表于 2021-10-9 02:30:12 | 显示全部楼层
谢谢楼主
回复 支持 反对

使用道具 举报

3

主题

1246

帖子

3756

积分

4K家园VIP

Rank: 9Rank: 9Rank: 9

积分
3756
发表于 2021-10-9 03:23:55 来自手机 | 显示全部楼层
谢谢楼主
回复 支持 反对

使用道具 举报

0

主题

1

帖子

6

积分

新手上路

Rank: 1

积分
6
发表于 2021-10-9 21:30:59 | 显示全部楼层
可以看到吗,
回复 支持 反对

使用道具 举报

0

主题

2

帖子

9

积分

新手上路

Rank: 1

积分
9
发表于 2021-10-9 21:43:53 | 显示全部楼层

纯粹路过,没任何兴趣,仅仅是看在老用户份上回复一下
回复 支持 反对

使用道具 举报

0

主题

11

帖子

45

积分

新手上路

Rank: 1

积分
45
发表于 2021-10-15 11:51:15 | 显示全部楼层

Where is Administration 4kjia.com?

Can I contact admin??
It is important.
Thanks.
回复 支持 反对

使用道具 举报

您需要登录后才可以回帖 登录 | 立即注册

本版积分规则

精彩图文
Archiver|手机版|TAG|Sitemap|新帖|专题|联系我们:邮箱: 4kjia.com@gmail.com   

4k家园   ©2019