[国家地理] [4K国家地理] 索契 (2021) [2160P/MKV/214MB]

[复制链接]

2609

主题

2943

帖子

2万

积分

超级版主

Rank: 8Rank: 8

积分
24513
 楼主| 发表于 2021-11-2 10:46:50 | 显示全部楼层 |阅读模式


索契 (2021) WEBRip 2160p.mkv_20211012_164516.474.jpg 索契 (2021) WEBRip 2160p.mkv_20211012_164522.018.jpg 索契 (2021) WEBRip 2160p.mkv_20211012_164528.491.jpg 索契 (2021) WEBRip 2160p.mkv_20211012_164546.114.jpg 索契 (2021) WEBRip 2160p.mkv_20211012_164555.882.jpg 索契 (2021) WEBRip 2160p.mkv_20211012_164625.618.jpg 信息
关于标题:索契
发行年: 2021
国家:俄罗斯
时长: 00 : 02 : 20
类型: 种
导演:叶夫根尼·Kozhin

关于影片:

        在这个视频中,你会看到贝泽平斯基檐口,比赛茶场,山阿昆和许多云彩!

General
Complete name                  : E:\索契 (2021) WEBRip 2160p.mkv
Format                         : Matroska
Format version                 : Version 4
File size                      : 214 MiB
Duration                       : 2 min 20 s
Overall bit rate               : 12.8 Mb/s
Encoded date                   : UTC 2021-10-10 14:57:39
Writing application            : mkvmerge v61.0.0 ('So') 64-bit
Writing library                : libebml v1.4.2 + libmatroska v1.6.4 / Lavf58.29.100

Video
ID                             : 1
Format                         : VP9
Codec ID                       : V_VP9
Duration                       : 2 min 20 s
Bit rate                       : 12.7 Mb/s
Width                          : 3 840 pixels
Height                         : 1 608 pixels
Display aspect ratio           : 2.40:1
Frame rate mode                : Constant
Frame rate                     : 30.000 FPS
Color space                    : YUV
Bits/(Pixel*Frame)             : 0.069
Stream size                    : 212 MiB (99%)
Default                        : Yes
Forced                         : No
Color range                    : Limited
Color primaries                : BT.709
Transfer characteristics       : BT.709
Matrix coefficients            : BT.709

Audio
ID                             : 2
Format                         : Opus
Codec ID                       : A_OPUS
Duration                       : 2 min 20 s
Bit rate                       : 128 kb/s
Channel(s)                     : 2 channels
Channel layout                 : L R
Sampling rate                  : 48.0 kHz
Frame rate                     : 50.003 FPS (960 SPF)
Bit depth                      : 32 bits
Compression mode               : Lossy
Stream size                    : 2.14 MiB (1%)
Default                        : Yes
Forced                         : No

下载地址

****此区域为收费内容****    需支付 15 金币后可查看立即购买





上一篇:[4K国家地理] 中世纪城堡 (2021) [2160P/MKV/340MB]
下一篇:[4K国家地理] 世界环旅 (2021) [2160P/MKV/1.07GB]
回复

使用道具 举报

49

主题

1495

帖子

4317

积分

4K家园VIP

Rank: 9Rank: 9Rank: 9

积分
4317
发表于 2021-11-2 10:46:59 来自手机 | 显示全部楼层
体验下4K版的
回复 支持 反对

使用道具 举报

52

主题

1495

帖子

4323

积分

4K家园VIP

Rank: 9Rank: 9Rank: 9

积分
4323
发表于 2021-11-2 10:46:59 来自手机 | 显示全部楼层
顶起顶起顶起
回复 支持 反对

使用道具 举报

0

主题

6676

帖子

1万

积分

4K家园VIP

Rank: 9Rank: 9Rank: 9

积分
15538
发表于 2021-11-2 11:15:00 | 显示全部楼层
俄羅斯索契4k
回复 支持 反对

使用道具 举报

37

主题

1461

帖子

4183

积分

4K家园VIP

Rank: 9Rank: 9Rank: 9

积分
4183
发表于 2021-11-2 22:05:18 | 显示全部楼层
前排支持下
回复 支持 反对

使用道具 举报

30

主题

1188

帖子

3542

积分

4K家园VIP

Rank: 9Rank: 9Rank: 9

积分
3542
发表于 2021-11-3 13:12:14 | 显示全部楼层
纯粹路过,没任何兴趣,仅仅是看在老用户份上回复一下
回复 支持 反对

使用道具 举报

0

主题

1316

帖子

4134

积分

中级会员

Rank: 4

积分
4134
发表于 2021-11-3 14:02:54 | 显示全部楼层
非常感谢楼主分享
回复 支持 反对

使用道具 举报

0

主题

1316

帖子

4134

积分

中级会员

Rank: 4

积分
4134
发表于 2021-11-3 14:03:43 | 显示全部楼层
非常感谢楼主分享
回复 支持 反对

使用道具 举报

3

主题

1344

帖子

3862

积分

4K家园VIP

Rank: 9Rank: 9Rank: 9

积分
3862
发表于 2021-11-5 03:28:35 | 显示全部楼层
这个资源我记得是一套的,楼主还有没有
回复 支持 反对

使用道具 举报

您需要登录后才可以回帖 登录 | 立即注册

本版积分规则

精彩图文
Archiver|手机版|TAG|Sitemap|新帖|专题|联系我们:邮箱: 4kjia.com@gmail.com   

4k家园   ©2019