[4K电影] 时栈中的指针 / Needle in a Timestack‎ (2021) 4K高清版本下载9.65GB

[复制链接]

30

主题

1188

帖子

3542

积分

4K家园VIP

Rank: 9Rank: 9Rank: 9

积分
3542
 楼主| 发表于 2021-10-15 09:57:16 | 显示全部楼层 |阅读模式
本帖最后由 叽里呱啦 于 2021-10-15 11:47 编辑

QQ图片20211015095001_副本.png

◎译  名 时栈中的指针/时光的针脚
◎片  名 Needle in a Timestack
◎年  代 2021
◎产  地 美国
◎类  别 科幻
◎语  言 英语
◎上映日期 2021-10-15(美国)
◎IMDb评分  /10 from 0 users
◎IMDb链接  https://www.imdb.com/title/tt7099280/
◎豆瓣评分 /10 from 0 users
◎豆瓣链接 https://movie.douban.com/subject/27019572/
◎导  演 约翰·里德利 John Ridley
◎编  剧 约翰·里德利 John Ridley / 罗伯特·西尔弗伯格 Robert Silverberg
◎主  演 辛西娅·艾莉佛 Cynthia Erivo
      蕾斯拉·德·奥利维拉 Laysla De Oliveira
      奥兰多·布鲁姆 Orlando Bloom
      小莱斯利·奥多姆 Leslie Odom Jr.
      亚历桑德罗·朱利安尼 Alessandro Juliani
      芙蕾达·平托 Freida Pinto
      神奈川宏幸 Hiro Kanagawa
      乔安娜·纽马奇 Johannah Newmarch
      詹姆斯·柯克 James Kirk
      伊丽莎白·韦恩斯坦 Elizabeth Weinstein
      Jadyn Wong Jadyn Wong


◎简  介

  奥兰多·布鲁姆、芙蕾达·平托、小莱斯利·奥多姆、Cynthia Erivo将主演约翰·雷德利(《美国重案》)执导新片《时栈中的指针》(Needle in a Timestack),Bron Studios制作。
  基于Robert Silverberg写的短篇,雷德利改编剧本,设定在一个存在时间旅行的世界里,一对夫妻努力维系着婚姻,过去和现在总是摇摆不定。

Video
ID : 1
Format : HEVC
Format/Info : High Efficiency Video Coding
Format profile : Main 10@L5@High
Codec ID : V_MPEGH/ISO/HEVC
Duration : 1 h 51 min
Bit rate : 12.0 Mb/s
Width : 3 828 pixels
Height : 1 596 pixels
Display aspect ratio : 2.40:1
Frame rate mode : Constant
Frame rate : 23.976 FPS
Color space : YUV
Chroma subsampling : 4:2:0
Bit depth : 10 bits
Bits/(Pixel*Frame) : 0.082
Stream size : 9.35 GiB (97%)
Default : Yes
Forced : No
Color range : Limited
Color primaries : BT.709
Transfer characteristics : BT.709
Matrix coefficients : BT.709

Audio
ID : 2
Format : AC-3
Format/Info : Audio Coding 3
Commercial name : Dolby Digital
Codec ID : A_AC3
Duration : 1 h 51 min
Bit rate mode : Constant
Bit rate : 384 kb/s
Channel(s) : 6 channels
Channel layout : L R C LFE Ls Rs
Sampling rate : 48.0 kHz
Frame rate : 31.250 FPS (1536 SPF)
Compression mode : Lossy
Stream size : 306 MiB (3%)
Title : English
Language : English
Service kind : Complete Main
Default : No
Forced : No

Text
ID : 3
Format : UTF-8
Codec ID : S_TEXT/UTF8
Codec ID/Info : UTF-8 Plain Text
Duration : 1 h 42 min
Bit rate : 55 b/s
Count of elements : 1126
Stream size : 41.2 KiB (0%)
Language : English
Default : Yes
Forced : No

下载地址

游客,如果您要查看本帖隐藏内容请回复






上一篇:木偶大闹鬼豪宅(内封中字) (2021) 4K高清版本下载7.87GB
下一篇:地下丝绒 / The Velvet Underground (2021) 4K高清版本下载20.39GB
回复

使用道具 举报

5

主题

1338

帖子

3856

积分

4K家园VIP

Rank: 9Rank: 9Rank: 9

积分
3856
发表于 2021-10-15 09:57:22 来自手机 | 显示全部楼层
垃圾内容,路过为证。
回复 支持 反对

使用道具 举报

0

主题

6718

帖子

1万

积分

4K家园VIP

Rank: 9Rank: 9Rank: 9

积分
15606
发表于 2021-10-15 11:49:22 | 显示全部楼层
太好啦&萬分感謝版主的無私發佈分享%
回复 支持 反对

使用道具 举报

0

主题

207

帖子

1263

积分

注册会员

Rank: 2

积分
1263
发表于 2021-10-15 13:06:38 | 显示全部楼层
感谢楼主分享
回复 支持 反对

使用道具 举报

0

主题

1

帖子

6

积分

新手上路

Rank: 1

积分
6
发表于 2021-10-16 04:36:06 | 显示全部楼层

female cam shows

female cam shows
回复 支持 反对

使用道具 举报

0

主题

11

帖子

45

积分

新手上路

Rank: 1

积分
45
发表于 2021-10-16 07:11:15 | 显示全部楼层

Where is Administration 4kjia.com?

Can I contact admin??
It is important.
Regards.
回复 支持 反对

使用道具 举报

0

主题

1293

帖子

3891

积分

4K家园VIP

Rank: 9Rank: 9Rank: 9

积分
3891
发表于 2021-10-17 01:07:43 | 显示全部楼层
OMG!介是啥东东!!!
回复 支持 反对

使用道具 举报

1

主题

1385

帖子

3989

积分

中级会员

Rank: 4

积分
3989
发表于 2021-10-17 04:34:24 | 显示全部楼层
顶起顶起顶起
回复 支持 反对

使用道具 举报

0

主题

11

帖子

45

积分

新手上路

Rank: 1

积分
45
发表于 2021-10-17 06:25:05 | 显示全部楼层

Where is Administration 4kjia.com?

Where is moderator??
I'ts important.
Thanks.
回复 支持 反对

使用道具 举报

0

主题

1374

帖子

3942

积分

4K家园VIP

Rank: 9Rank: 9Rank: 9

积分
3942
发表于 2021-10-18 08:23:12 来自手机 | 显示全部楼层
啊啊啊啊啊啊啊啊啊啊啊
回复 支持 反对

使用道具 举报

您需要登录后才可以回帖 登录 | 立即注册

本版积分规则

精彩图文
Archiver|手机版|TAG|Sitemap|新帖|专题|联系我们:邮箱: 4kjia.com@gmail.com   

4k家园   ©2019