耶路撒冷地 / Chapelwaite (2021) / 第一季全10集 / 4K高清下载

[复制链接]

52

主题

59

帖子

602

积分

版主

Rank: 7Rank: 7Rank: 7

积分
602
 楼主| 发表于 2021-10-18 12:24:35 | 显示全部楼层 |阅读模式

p2670960260_副本.jpg

◎译  名 耶路撒冷地/耶路撒冷镇/Jerusalem's Lot
◎片  名 Chapelwaite
◎年  代 2021
◎产  地 美国
◎类  别 剧情/悬疑/恐怖
◎语  言 英语
◎上映日期 2021-08-22(美国)
◎IMDb评分  7.5/10 from 3457 users
◎IMDb链接  https://www.imdb.com/title/tt11525188/
◎豆瓣评分 /10 from 0 users
◎豆瓣链接 https://douban.com/subject/34922359/
◎集  数 10
◎导  演 彼得·费拉迪 Peter Filardi
◎编  剧 斯蒂芬·金 Stephen King
◎主  演 艾德里安·布洛迪 Adrien Brody
       埃米丽·汉普希尔 Emily Hampshire
       伊恩·霍 Ian Ho
       戈德·兰德 Gord Rand
       吉娜维芙·迪格雷夫斯 Genevieve DeGraves
       阿莱格拉·富尔顿 Allegra Fulton
       迪恩·阿姆斯特朗 Dean Armstrong
       史蒂文·麦卡锡 Steven McCarthy
       朱利安·瑞钦斯 Julian Richings
       乔安妮·博兰德 Joanne Boland
       克里斯托弗·赫耶达尔 Christopher Heyerdahl
       休·汤普森 Hugh Thompson
       马修·德尔·贝尔·贝鲁兹 Matthew Del Bel Belluz
       诺林·古拉姆高斯 Noorin Gulamgaus
       高莉莉 Lily Gao
       Charlie Rhindress Charlie Rhindress
       Jordan Poole   Jordan Poole



◎简  介


  19世纪50年代,船长查尔斯·布恩(艾德里安·布洛迪 Adrien Brody 饰)的妻子于海上去世后,他带着三个孩子回到缅因州名叫“传教士之角”的小镇里定居。在祖传的老宅子里,查尔斯发现了自己家族的黑暗秘密。

General
Complete name                  : H:\Chapelwaite.S01E01.2160p.WEB-DL.DDP5.1.HEVC-FLUX.mkv
Format                         : Matroska
Format version                 : Version 4
File size                      : 3.11 GiB
Duration                       : 1 h 0 min
Overall bit rate               : 7 411 kb/s
Encoded date                   : UTC 2021-10-07 10:40:28
Writing application            : mkvmerge v59.0.0 ('Shining Star') 64-bit
Writing library                : libebml v1.4.2 + libmatroska v1.6.4
IsTruncated                    : Yes

Video
ID                             : 1
Format                         : HEVC
Format/Info                    : High Efficiency Video Coding
Format profile                 : Main 10@L5@High
Codec ID                       : V_MPEGH/ISO/HEVC
Duration                       : 1 h 0 min
Bit rate                       : 6 623 kb/s
Width                          : 3 840 pixels
Height                         : 1 920 pixels
Display aspect ratio           : 2.000
Frame rate mode                : Constant
Frame rate                     : 23.976 (24000/1001) FPS
Color space                    : YUV
Chroma subsampling             : 4:2:0
Bit depth                      : 10 bits
Bits/(Pixel*Frame)             : 0.037
Stream size                    : 2.78 GiB (89%)
Default                        : Yes
Forced                         : No
Color range                    : Limited
Color primaries                : BT.709
Transfer characteristics       : BT.709
Matrix coefficients            : BT.709

Audio
ID                             : 2
Format                         : E-AC-3
Format/Info                    : Enhanced AC-3
Commercial name                : Dolby Digital Plus
Codec ID                       : A_EAC3
Duration                       : 1 h 0 min
Bit rate mode                  : Constant
Bit rate                       : 640 kb/s
Channel(s)                     : 6 channels
Channel layout                 : L R C LFE Ls Rs
Sampling rate                  : 48.0 kHz
Frame rate                     : 31.250 FPS (1536 SPF)
Compression mode               : Lossy
Stream size                    : 275 MiB (9%)
Language                       : English
Service kind                   : Complete Main
Default                        : Yes
Forced                         : No

Text #1
ID                             : 3
Format                         : UTF-8
Codec ID                       : S_TEXT/UTF8
Codec ID/Info                  : UTF-8 Plain Text
Language                       : English
Default                        : No
Forced                         : No

Text #2
ID                             : 4
Format                         : UTF-8
Codec ID                       : S_TEXT/UTF8
Codec ID/Info                  : UTF-8 Plain Text
Title                          : SDH
Language                       : English
Default                        : No
Forced                         : No

Menu
00:03:32.000                   : Intro
00:05:00.000                   : Main
00:58:14.000                   : Credits


下载地址

游客,如果您要查看本帖隐藏内容请回复






上一篇:看见(内嵌简繁中字) / See (2021) / 第二季全8集 / 4K高清下载
下一篇:公寓大楼里的谋杀案 (2021) / 第一季全10集 / 4K高清下载
回复

使用道具 举报

3

主题

1571

帖子

4307

积分

4K家园VIP

Rank: 9Rank: 9Rank: 9

积分
4307
发表于 2021-10-18 12:24:45 | 显示全部楼层
我擦!我要沙发!
回复 支持 反对

使用道具 举报

39

主题

1440

帖子

4114

积分

4K家园VIP

Rank: 9Rank: 9Rank: 9

积分
4114
发表于 2021-10-18 15:43:29 | 显示全部楼层
顶顶更健康
回复 支持 反对

使用道具 举报

1

主题

1317

帖子

3963

积分

4K家园VIP

Rank: 9Rank: 9Rank: 9

积分
3963
发表于 2021-10-19 14:14:53 来自手机 | 显示全部楼层
是爷们的娘们的都帮顶!大力支持
回复 支持 反对

使用道具 举报

1

主题

1219

帖子

3673

积分

4K家园VIP

Rank: 9Rank: 9Rank: 9

积分
3673
发表于 2021-10-19 20:13:19 | 显示全部楼层
撸过
回复 支持 反对

使用道具 举报

52

主题

1495

帖子

4323

积分

4K家园VIP

Rank: 9Rank: 9Rank: 9

积分
4323
发表于 2021-10-20 01:21:18 | 显示全部楼层
路过的帮顶
回复 支持 反对

使用道具 举报

您需要登录后才可以回帖 登录 | 立即注册

本版积分规则

精彩图文
Archiver|手机版|TAG|Sitemap|新帖|专题|联系我们:邮箱: 4kjia.com@gmail.com   

4k家园   ©2019