[4K电影] 之后3 / After We Fell (2021) 4K高清版本下载

[复制链接]

1134

主题

1211

帖子

9841

积分

超级版主

Rank: 8Rank: 8

积分
9841
 楼主| 发表于 2021-10-22 09:36:23 | 显示全部楼层 |阅读模式
本帖最后由 最爱4K哟 于 2021-10-22 10:17 编辑

QQ图片20211022101125_副本.png

◎译  名 之后3/After 3/После падения
◎片  名 After We Fell
◎年  代 2021
◎产  地 美国 / 保加利亚
◎类  别 剧情
◎语  言 英语
◎上映日期 2021-09-01(芬兰) / 2021-09-03(保加利亚)
◎IMDb评分  5.0/10 from 3252 users
◎IMDb链接  https://www.imdb.com/title/tt13069986/
◎豆瓣评分 5.5/10 from 169 users
◎豆瓣链接 https://movie.douban.com/subject/35221424/
◎片  长 99分钟
◎导  演 卡斯蒂利·兰登 Castille Landon
◎编  剧 安娜·托德 Anna Todd / 莎伦·索博伊尔 Sharon Soboil
◎主  演 约瑟芬·兰福德 Josephine Langford
       赫洛·费因斯-提芬 Hero Fiennes Tiffin
       路易丝·隆巴德 Louise Lombard
       钱斯·佩尔多莫 Chance Perdomo
       罗伯·艾斯特斯 Rob Estes
       阿莉尔·凯贝尔 Arielle Kebbel
       史蒂芬·莫耶 Stephen Moyer
       米拉·索维诺 Mira Sorvino
       弗朗西丝·特纳 Frances Turner
       基亚娜·马德拉 Kiana Madeira
       卡特·詹金斯 Carter Jenkins
       阿塔纳斯·斯雷布雷夫 Atanas Srebrev
       安娜·伊万娜娃 Ana Ivanova



◎简  介

  [之后3]讲述Tessa的生活开始变得扑朔迷离,一切都不像她想象的那样。她唯一可以依靠的人Hardin发现她一直保守的巨大秘密时,Hardin非常愤怒。而他非但没有理解,反而搞起了破坏。

Video
ID : 1
Format : HEVC
Format/Info : High Efficiency Video Coding
Format profile : Main 10@L5@High
Codec ID : V_MPEGH/ISO/HEVC
Duration : 1 h 38 min
Bit rate : 12.0 Mb/s
Width : 3 840 pixels
Height : 1 744 pixels
Display aspect ratio : 2.2:1
Frame rate mode : Constant
Frame rate : 23.976 FPS
Color space : YUV
Chroma subsampling : 4:2:0
Bit depth : 10 bits
Bits/(Pixel*Frame) : 0.075
Stream size : 8.26 GiB (97%)
Default : Yes
Forced : No
Color range : Limited
Color primaries : BT.709
Transfer characteristics : BT.709
Matrix coefficients : BT.709

Audio
ID : 2
Format : AC-3
Format/Info : Audio Coding 3
Commercial name : Dolby Digital
Codec ID : A_AC3
Duration : 1 h 38 min
Bit rate mode : Constant
Bit rate : 384 kb/s
Channel(s) : 6 channels
Channel layout : L R C LFE Ls Rs
Sampling rate : 48.0 kHz
Frame rate : 31.250 FPS (1536 SPF)
Compression mode : Lossy
Stream size : 271 MiB (3%)
Title : English
Language : English
Service kind : Complete Main
Default : Yes
Forced : No

Text #1
ID : 3
Format : UTF-8
Codec ID : S_TEXT/UTF8
Codec ID/Info : UTF-8 Plain Text
Duration : 1 h 37 min
Bit rate : 61 b/s
Count of elements : 1565
Stream size : 43.6 KiB (0%)
Title : English (SDH)
Language : English
Default : No
Forced : No

Text #2
ID : 4
Format : UTF-8
Codec ID : S_TEXT/UTF8
Codec ID/Info : UTF-8 Plain Text
Duration : 1 h 34 min
Bit rate : 64 b/s
Count of elements : 1370
Stream size : 44.4 KiB (0%)
Title : French (SDH)
Language : French
Default : No
Forced : No

Text #3
ID : 5
Format : UTF-8
Codec ID : S_TEXT/UTF8
Codec ID/Info : UTF-8 Plain Text
Duration : 1 h 33 min
Bit rate : 0 b/s
Count of elements : 6
Stream size : 103 Bytes (0%)
Title : French (Forced)
Language : French
Default : No
Forced : No

Menu
00:00:00.000 : :Scene 1
00:10:43.935 : :Scene 2
00:21:14.315 : :Scene 3
00:33:10.323 : :Scene 4
00:45:02.160 : :Scene 5
00:57:39.209 : :Scene 6
01:09:55.195 : :Scene 7
01:22:06.009 : :Scene 8
01:34:42.515 : :Scene 9

迅雷下载资源速度为零,资源敏感或被和谐时,推荐使用qBittorrent等无限速下载软件,有条件的推荐115更好的下载软件!

下载地址

游客,如果您要查看本帖隐藏内容请回复







上一篇:不义联盟/Injustice (2021) 4K高清版本下载
下一篇:戴高乐 / De Gaulle (2020) 4K高清版本下载
回复

使用道具 举报

1

主题

1385

帖子

4169

积分

4K家园VIP

Rank: 9Rank: 9Rank: 9

积分
4169
发表于 2021-10-22 09:36:28 | 显示全部楼层
路过
回复 支持 反对

使用道具 举报

0

主题

6718

帖子

1万

积分

4K家园VIP

Rank: 9Rank: 9Rank: 9

积分
15606
发表于 2021-10-22 10:44:58 | 显示全部楼层
太好啦&萬分感謝版主的無私發佈分享%
回复 支持 反对

使用道具 举报

0

主题

22

帖子

495

积分

新手上路

Rank: 1

积分
495
发表于 2021-10-22 20:13:58 | 显示全部楼层
感谢分享
回复

使用道具 举报

0

主题

1

帖子

6

积分

新手上路

Rank: 1

积分
6
发表于 2021-10-26 16:59:38 | 显示全部楼层
xiexie
回复

使用道具 举报

59

主题

1446

帖子

4192

积分

4K家园VIP

Rank: 9Rank: 9Rank: 9

积分
4192
发表于 2021-11-1 12:08:44 | 显示全部楼层
顶起顶起顶起
回复 支持 反对

使用道具 举报

0

主题

1607

帖子

4451

积分

4K家园VIP

Rank: 9Rank: 9Rank: 9

积分
4451
发表于 2021-11-1 17:03:41 | 显示全部楼层
我也来顶一下..
回复 支持 反对

使用道具 举报

1

主题

1267

帖子

3815

积分

4K家园VIP

Rank: 9Rank: 9Rank: 9

积分
3815
发表于 2021-11-5 23:43:02 来自手机 | 显示全部楼层
嘘,低调。
回复 支持 反对

使用道具 举报

1

主题

1304

帖子

3928

积分

4K家园VIP

Rank: 9Rank: 9Rank: 9

积分
3928
发表于 2021-11-7 22:35:02 来自手机 | 显示全部楼层
支持支持再支持
回复 支持 反对

使用道具 举报

您需要登录后才可以回帖 登录 | 立即注册

本版积分规则

精彩图文
Archiver|手机版|TAG|Sitemap|新帖|专题|联系我们:邮箱: 4kjia.com@gmail.com   

4k家园   ©2019