[4K电影] 戴高乐 / De Gaulle (2020) 4K高清版本下载

[复制链接]

1130

主题

1203

帖子

9797

积分

超级版主

Rank: 8Rank: 8

积分
9797
 楼主| 发表于 2021-10-22 09:51:41 | 显示全部楼层 |阅读模式
本帖最后由 最爱4K哟 于 2021-10-22 10:16 编辑

QQ图片20211022101246_副本.png

◎译  名 戴高乐
◎片  名 De Gaulle
◎年  代 2020
◎产  地 法国
◎类  别 传记 / 历史
◎语  言 法语
◎上映日期 2020-03-04(法国)
◎IMDb评分  6.0/10 from 1149 users
◎IMDb链接  https://www.imdb.com/title/tt10880402/
◎豆瓣评分 6.0/10 from 274 users
◎豆瓣链接 https://movie.douban.com/subject/34918949/
◎片  长 107分钟
◎导  演 加布里埃尔·勒博明 Gabriel Le Bomin
◎编  剧 加布里埃尔·勒博明 Gabriel Le Bomin
◎主  演 朗贝尔·维尔森 Lambert Wilson
       伊莎贝尔·卡雷 Isabelle Carré
       安德鲁·比克内尔 Andrew Bicknell
       奥利维埃·古尔梅 Olivier Gourmet
       索菲·昆汀 Sophie Quinton
       尼古拉斯·罗宾 Nicolas Robin
       维克多·贝尔蒙多 Victor Belmondo
       埃弗琳·布尔 Evelyne Buyle
       蒂姆·哈德森 Tim Hudson
       凯斯特·洛夫莱斯 Kester Lovelace
       德里克·西蒙·罗宾 Derek Simon Robin
       凯瑟琳·蒙切特 Catherine Mouchet



◎简  介

  1940年6月,巴黎,戴高乐夫妇面临法国的军事和政治上的崩溃,戴高乐选择奔赴伦敦继续抗战,而他的妻子伊冯则与三个孩子一起踏上远赴埃及之路。

◎获奖情况

  第46届法国凯撒电影奖 ?(2021)
  最佳男主角(提名) 朗贝尔·维尔森
  最佳服装(提名)
  最佳布景(提名)
Video
ID : 1
Format : HEVC
Format/Info : High Efficiency Video Coding
Format profile : Main 10@L5@High
HDR format : SMPTE ST 2086, HDR10 compatible
Codec ID : V_MPEGH/ISO/HEVC
Duration : 1 h 48 min
Bit rate : 14.5 Mb/s
Width : 3 836 pixels
Height : 1 604 pixels
Display aspect ratio : 2.40:1
Frame rate mode : Constant
Frame rate : 24.000 FPS
Color space : YUV
Chroma subsampling : 4:2:0 (Type 2)
Bit depth : 10 bits
Bits/(Pixel*Frame) : 0.098
Stream size : 11.0 GiB (83%)
Default : Yes
Forced : No
Color range : Limited
Color primaries : BT.2020
Transfer characteristics : PQ
Matrix coefficients : BT.2020 non-constant
Mastering display color primaries : BT.2020
Mastering display luminance : min: 0.0000 cd/m2, max: 1000 cd/m2
Maximum Content Light Level : 6977 cd/m2
Maximum Frame-Average Light Level : 158 cd/m2

Audio #1
ID : 2
Format : DTS XLL
Format/Info : Digital Theater Systems
Commercial name : DTS-HD Master Audio
Codec ID : A_DTS
Duration : 1 h 48 min
Bit rate mode : Variable
Bit rate : 2 545 kb/s
Channel(s) : 6 channels
Channel layout : C L R Ls Rs LFE
Sampling rate : 48.0 kHz
Frame rate : 93.750 FPS (512 SPF)
Bit depth : 24 bits
Compression mode : Lossless
Stream size : 1.94 GiB (15%)
Title : DTS-HD MA 5.1
Language : French
Default : Yes
Forced : No

Audio #2
ID : 3
Format : AC-3
Format/Info : Audio Coding 3
Commercial name : Dolby Digital
Codec ID : A_AC3
Duration : 1 h 48 min
Bit rate mode : Constant
Bit rate : 384 kb/s
Channel(s) : 6 channels
Channel layout : L R C LFE Ls Rs
Sampling rate : 48.0 kHz
Frame rate : 31.250 FPS (1536 SPF)
Compression mode : Lossy
Stream size : 299 MiB (2%)
Title : DD 5.1
Language : French
Service kind : Complete Main
Default : No
Forced : No

Text #1
ID : 4
Format : UTF-8
Codec ID : S_TEXT/UTF8
Codec ID/Info : UTF-8 Plain Text
Duration : 1 h 47 min
Bit rate : 53 b/s
Count of elements : 1177
Stream size : 42.2 KiB (0%)
Title : English
Language : English
Default : Yes
Forced : Yes

Text #2
ID : 5
Format : UTF-8
Codec ID : S_TEXT/UTF8
Codec ID/Info : UTF-8 Plain Text
Duration : 1 h 48 min
Bit rate : 63 b/s
Count of elements : 1559
Stream size : 50.5 KiB (0%)
Title : French (SDH)
Language : French
Default : No
Forced : No

Text #3
ID : 6
Format : PGS
Muxing mode : zlib
Codec ID : S_HDMV/PGS
Codec ID/Info : Picture based subtitle format used on BDs/HD-DVDs
Duration : 1 h 48 min
Bit rate : 34.8 kb/s
Count of elements : 3116
Stream size : 27.0 MiB (0%)
Language : French
Default : No
Forced : No

Menu
00:00:00.000 : en:Chapter 01
00:09:17.208 : en:Chapter 02
00:19:37.958 : en:Chapter 03
00:29:47.875 : en:Chapter 04
00:39:59.291 : en:Chapter 05
00:49:58.583 : en:Chapter 06
00:59:42.041 : en:Chapter 07
01:09:14.375 : en:Chapter 08
01:21:24.458 : en:Chapter 09
01:29:48.791 : en:Chapter 10
01:38:38.458 : en:Chapter 11
01:45:04.708 : en:Chapter 12

迅雷下载资源速度为零,资源敏感或被和谐时,推荐使用qBittorrent等无限速下载软件,有条件的推荐115更好的下载软件!


游客,如果您要查看本帖隐藏内容请回复

游客,如果您要查看本帖隐藏内容请回复






上一篇:之后3 / After We Fell (2021) 4K高清版本下载
下一篇:密室逃生2(俄版)/ Escape Room 2 (2021) 4K高清版下载
回复

使用道具 举报

2

主题

1638

帖子

4500

积分

4K家园VIP

Rank: 9Rank: 9Rank: 9

积分
4500
发表于 2021-10-22 09:52:04 | 显示全部楼层
为毛老子总也抢不到沙发?!!
回复 支持 反对

使用道具 举报

0

主题

6676

帖子

1万

积分

4K家园VIP

Rank: 9Rank: 9Rank: 9

积分
15538
发表于 2021-10-22 10:44:32 | 显示全部楼层
太好啦&萬分感謝版主的無私發佈分享%
回复 支持 反对

使用道具 举报

1

主题

1500

帖子

4348

积分

4K家园VIP

Rank: 9Rank: 9Rank: 9

积分
4348
发表于 2021-10-25 05:24:23 来自手机 | 显示全部楼层
垃圾内容,路过为证。
回复 支持 反对

使用道具 举报

0

主题

4

帖子

21

积分

新手上路

Rank: 1

积分
21
发表于 2021-10-25 16:59:48 | 显示全部楼层

谢谢楼主分享
回复 支持 反对

使用道具 举报

0

主题

1313

帖子

3761

积分

4K家园VIP

Rank: 9Rank: 9Rank: 9

积分
3761
发表于 2021-10-25 18:10:44 | 显示全部楼层
站位支持
回复 支持 反对

使用道具 举报

2

主题

1681

帖子

4673

积分

4K家园VIP

Rank: 9Rank: 9Rank: 9

积分
4673
发表于 2021-10-25 21:56:05 来自手机 | 显示全部楼层
占坑编辑ing
回复 支持 反对

使用道具 举报

50

主题

1415

帖子

4055

积分

4K家园VIP

Rank: 9Rank: 9Rank: 9

积分
4055
发表于 2021-10-26 07:12:39 来自手机 | 显示全部楼层
什么东西啊
回复 支持 反对

使用道具 举报

您需要登录后才可以回帖 登录 | 立即注册

本版积分规则

精彩图文
Archiver|手机版|TAG|Sitemap|新帖|专题|联系我们:邮箱: 4kjia.com@gmail.com   

4k家园   ©2019