正在进行 / Work in Progress (2021) / 第二季全10集 / 4K高清下载

[复制链接]

52

主题

59

帖子

602

积分

版主

Rank: 7Rank: 7Rank: 7

积分
602
 楼主| 发表于 2021-10-24 20:58:49 | 显示全部楼层 |阅读模式
本帖最后由 美剧小虾 于 2021-10-25 10:06 编辑

p2681440305_副本.jpg

◎译  名 正在进行 第二季/进行中/有待改善
◎片  名 Work in Progress Season 2
◎年  代 2021
◎产  地 美国
◎类  别 喜剧
◎语  言 英语
◎上映日期 2021-08-22(美国)
◎IMDb评分  7.2/10 from 1691 users
◎IMDb链接  https://www.imdb.com/title/tt10417836/
◎豆瓣评分 /10 from 0 users
◎豆瓣链接 https://douban.com/subject/34958030/
◎集  数 10
◎编  剧 莉莉·沃卓斯基 Lilly Wachowski / Tim Mason Tim Mason / Abby McEnany Abby McEnany
◎主  演 Abby McEnany Abby McEnany
       瑟莱斯特派蔻丝 Celeste Pechous
       卡琳·安格林 Karin Anglin
       朱丽亚·斯维尼 Julia Sweeney
       玛丽·索恩 Mary Sohn
       Kelli Simpkins Kelli Simpkins


◎简  介


  莉莉·沃卓斯基共同编剧与执导了剧集《进行中》(Work meijubar.net in Progress,暂译)。剧集先导集由艾比·麦克塞纳尼和蒂姆·梅森创作。艾比被迫重新评估她的生活选择,她的约会选择,以及是否要面对那个“毁了她生活”的女人:朱莉娅·斯威尼。艾比的心理医生在治疗中途去世,她开始和一个跨性男人约会。该集将于1月29日在圣丹斯电影节首映。

General
Complete name                  : H:\Work.In.Progress.S02E01.2160p.SHO.WEB-DL.DD5.1.HEVC-NTb.mkv
Format                         : Matroska
Format version                 : Version 4
File size                      : 2.84 GiB
Duration                       : 27 min 58 s
Overall bit rate               : 14.5 Mb/s
Encoded date                   : UTC 2021-10-22 12:11:05
Writing application            : mkvmerge v60.0.0 ('Are We Copies?') 64-bit
Writing library                : libebml v1.4.2 + libmatroska v1.6.4
IsTruncated                    : Yes

Video
ID                             : 1
Format                         : HEVC
Format/Info                    : High Efficiency Video Coding
Format profile                 : Main@L5@Main
Codec ID                       : V_MPEGH/ISO/HEVC
Duration                       : 27 min 58 s
Bit rate                       : 13.8 Mb/s
Width                          : 3 840 pixels
Height                         : 2 160 pixels
Display aspect ratio           : 16:9
Frame rate mode                : Constant
Frame rate                     : 23.976 (24000/1001) FPS
Color space                    : YUV
Chroma subsampling             : 4:2:0
Bit depth                      : 8 bits
Bits/(Pixel*Frame)             : 0.070
Stream size                    : 2.71 GiB (95%)
Writing library                : x265 3.5hy:[Linux][GCC 7.5.0][64 bit] 8bit
Encoding settings              : cpuid=1111039 / frame-threads=2 / wpp / no-pmode / no-pme / no-psnr / no-ssim / log-level=2 / input-csp=1 / input-res=3840x2160 / interlace=0 / total-frames=0 / level-idc=0 / high-tier=1 / uhd-bd=0 / ref=4 / no-allow-non-conformance / repeat-headers / annexb / aud / hrd / info / hash=0 / no-temporal-layers / no-open-gop / min-keyint=48 / keyint=48 / gop-lookahead=0 / bframes=4 / b-adapt=2 / b-pyramid / bframe-bias=0 / rc-lookahead=48 / lookahead-slices=4 / scenecut=0 / hist-scenecut=0 / radl=0 / no-splice / no-intra-refresh / ctu=64 / min-cu-size=8 / rect / no-amp / max-tu-size=32 / tu-inter-depth=1 / tu-intra-depth=1 / limit-tu=0 / rdoq-level=2 / dynamic-rd=0.00 / no-ssim-rd / signhide / no-tskip / nr-intra=100 / nr-inter=200 / no-constrained-intra / strong-intra-smoothing / max-merge=3 / limit-refs=3 / limit-modes / me=3 / subme=3 / merange=57 / temporal-mvp / no-frame-dup / no-hme / weightp / no-weightb / no-analyze-src-pics / deblock=0:0 / no-sao / no-sao-non-deblock / rd=4 / selective-sao=0 / no-early-skip / no-rskip / no-fast-intra / no-tskip-fast / no-cu-lossless / no-b-intra / no-splitrd-skip / rdpenalty=0 / psy-rd=0.00 / psy-rdoq=10.00 / no-rd-refine / no-lossless / cbqpoffs=0 / crqpoffs=0 / rc=abr / bitrate=15000 / qcomp=0.60 / qpstep=1 / stats-write=0 / stats-read=2 / cplxblur=20.0 / qblur=0.5 / vbv-maxrate=18000 / vbv-bufsize=12000 / vbv-init=0.6 / min-vbv-fullness=50.0 / max-vbv-fullness=80.0 / vbv-end=0.6 / vbv-end-fr-adj=0.0 / ipratio=1.10 / pbratio=1.00 / aq-mode=0 / aq-strength=0.00 / no-cutree / zone-count=0 / no-strict-cbr / qg-size=32 / rc-grain / qpmax=69 / qpmin=0 / const-vbv / sar=0 / overscan=0 / videoformat=5 / range=0 / colorprim=1 / transfer=1 / colormatrix=1 / chromaloc=0 / display-window=0 / cll=0,0 / min-luma=0 / max-luma=255 / log2-max-poc-lsb=8 / vui-timing-info / vui-hrd-info / no-concatenation / slices=1 / no-opt-qp-pps / no-opt-ref-list-length-pps / no-multi-pass-opt-rps / scenecut-bias=0.05 / hist-threshold=0.03 / no-opt-cu-delta-qp / no-aq-motion / no-hdr10 / no-hdr10-opt / no-dhdr10-opt / no-idr-recovery-sei / analysis-reuse-level=0 / analysis-save-reuse-level=0 / analysis-load-reuse-level=0 / scale-factor=0 / refine-intra=0 / refine-inter=0 / refine-mv=1 / refine-ctu-distortion=0 / no-limit-sao / ctu-info=0 / no-lowpass-dct / refine-analysis-type=0 / copy-pic=1 / max-ausize-factor=1.0 / no-dynamic-refine / no-single-sei / no-hevc-aq / no-svt / no-field / qp-adaptation-range=1.00 / scenecut-aware-qp=0conformance-window-offsets / right=0 / bottom=0 / decoder-max-rate=0 / no-vbv-live-multi-pass
Default                        : Yes
Forced                         : No
Color range                    : Limited
Color primaries                : BT.709
Transfer characteristics       : BT.709
Matrix coefficients            : BT.709

Audio
ID                             : 2
Format                         : AC-3
Format/Info                    : Audio Coding 3
Commercial name                : Dolby Digital
Codec ID                       : A_AC3
Duration                       : 27 min 58 s
Bit rate mode                  : Constant
Bit rate                       : 384 kb/s
Channel(s)                     : 6 channels
Channel layout                 : L R C LFE Ls Rs
Sampling rate                  : 48.0 kHz
Frame rate                     : 31.250 FPS (1536 SPF)
Compression mode               : Lossy
Stream size                    : 76.8 MiB (3%)
Service kind                   : Complete Main
Default                        : Yes
Forced                         : No

Text
ID                             : 3
Format                         : UTF-8
Codec ID                       : S_TEXT/UTF8
Codec ID/Info                  : UTF-8 Plain Text
Language                       : English
Default                        : No
Forced                         : No

下载地址

游客,如果您要查看本帖隐藏内容请回复







上一篇:直言真相(内嵌简繁中字)(2021) / 第二季全10集 / 4K高清下载
下一篇:鱿鱼游戏 (内嵌中字)/ Squid Game (2021) / 第一季全9集/4K高清下载
回复

使用道具 举报

1

主题

1344

帖子

3878

积分

4K家园VIP

Rank: 9Rank: 9Rank: 9

积分
3878
发表于 2021-10-24 20:59:12 来自手机 | 显示全部楼层
支持,赞一个
回复 支持 反对

使用道具 举报

2

主题

1310

帖子

3796

积分

4K家园VIP

Rank: 9Rank: 9Rank: 9

积分
3796
发表于 2021-10-24 21:15:21 | 显示全部楼层
占坑编辑ing
回复 支持 反对

使用道具 举报

48

主题

1493

帖子

4281

积分

4K家园VIP

Rank: 9Rank: 9Rank: 9

积分
4281
发表于 2021-10-24 22:06:30 | 显示全部楼层
顶顶更健康
回复 支持 反对

使用道具 举报

0

主题

1346

帖子

3900

积分

4K家园VIP

Rank: 9Rank: 9Rank: 9

积分
3900
发表于 2021-10-24 22:29:10 | 显示全部楼层
发发呆,回回帖,工作结束~
回复 支持 反对

使用道具 举报

0

主题

1299

帖子

3895

积分

4K家园VIP

Rank: 9Rank: 9Rank: 9

积分
3895
发表于 2021-10-24 23:52:56 | 显示全部楼层
支持,楼下的跟上哈~
回复 支持 反对

使用道具 举报

0

主题

6676

帖子

1万

积分

4K家园VIP

Rank: 9Rank: 9Rank: 9

积分
15538
发表于 2021-10-25 08:56:22 | 显示全部楼层
太好啦&萬分感謝版主的無私發佈分享%
回复 支持 反对

使用道具 举报

0

主题

1

帖子

10

积分

新手上路

Rank: 1

积分
10
发表于 2021-11-19 09:33:44 | 显示全部楼层
感谢分享,
回复

使用道具 举报

您需要登录后才可以回帖 登录 | 立即注册

本版积分规则

精彩图文
Archiver|手机版|TAG|Sitemap|新帖|专题|联系我们:邮箱: 4kjia.com@gmail.com   

4k家园   ©2019