[4K电影] Saving.Sloane (2021) 4K高清版下载

[复制链接]

4

主题

1654

帖子

4566

积分

4K家园VIP

Rank: 9Rank: 9Rank: 9

积分
4566
 楼主| 发表于 2021-10-27 10:27:49 | 显示全部楼层 |阅读模式
MV5BMWIyMGY2ZWItODg3ZS00ZjE3LTlkMjYtMWNjODk1NzAzNWI2XkEyXkFqcGdeQXVyOTg4MDYyNw@@.jpg

◎片  名 Saving.Sloane
◎年  代 2021
◎产  地 美国
◎类  别 剧情
◎语  言 英语
◎上映日期 2021 年 10 月 26 日(美国)
◎IMDb评分  5.3/10 from 15 users
◎IMDb链接  https://www.imdb.com/title/tt3569630/
◎片  长 89分钟
◎导  演 史蒂夫·弗兰克
◎编  剧 丽兹·卡德纳斯史蒂夫·弗兰克
◎演  员 奥古斯丁
                   弗里泽尔布莱恩
                   梅西杰拉尔多
                   达维拉



◎简  介


        在被宠坏的城市女孩斯隆·爱默生再次惹上麻烦之后,她富有的父母将她送到了乡下。在那里,这个叛逆的青少年最终与她想到的世界上最后一件东西——一匹马建立了联系。
Video
ID : 1
Format : HEVC
Format/Info : High Efficiency Video Coding
Format profile : Main 10@L5@High
Codec ID : V_MPEGH/ISO/HEVC
Duration : 1 h 29 min
Bit rate : 11.9 Mb/s
Width : 3 828 pixels
Height : 2 148 pixels
Display aspect ratio : 16:9
Frame rate mode : Constant
Frame rate : 23.976 FPS
Color space : YUV
Chroma subsampling : 4:2:0
Bit depth : 10 bits
Bits/(Pixel*Frame) : 0.060
Stream size : 7.42 GiB (97%)
Default : Yes
Forced : No
Color range : Limited
Color primaries : BT.709
Transfer characteristics : BT.709
Matrix coefficients : BT.709

Audio
ID : 2
Format : AC-3
Format/Info : Audio Coding 3
Commercial name : Dolby Digital
Codec ID : A_AC3
Duration : 1 h 29 min
Bit rate mode : Constant
Bit rate : 384 kb/s
Channel(s) : 6 channels
Channel layout : L R C LFE Ls Rs
Sampling rate : 48.0 kHz
Frame rate : 31.250 FPS (1536 SPF)
Compression mode : Lossy
Stream size : 245 MiB (3%)
Title : English
Language : English
Service kind : Complete Main
Default : No
Forced : No

Text #1
ID : 3
Format : UTF-8
Codec ID : S_TEXT/UTF8
Codec ID/Info : UTF-8 Plain Text
Duration : 1 h 22 min
Bit rate : 63 b/s
Count of elements : 1272
Stream size : 38.5 KiB (0%)
Language : English
Default : Yes
Forced : No

Text #2
ID : 4
Format : UTF-8
Codec ID : S_TEXT/UTF8
Codec ID/Info : UTF-8 Plain Text
Duration : 1 h 23 min
Bit rate : 60 b/s
Count of elements : 1122
Stream size : 37.1 KiB (0%)
Title : French
Language : French
Default : No
Forced : No
下载地址

游客,如果您要查看本帖隐藏内容请回复









上一篇:弗兰克 / Frank (2021) 4K高清版下载
下一篇:Madame X (2021) 4K高清版下载
回复

使用道具 举报

1

主题

1385

帖子

4169

积分

4K家园VIP

Rank: 9Rank: 9Rank: 9

积分
4169
发表于 2021-10-27 10:27:53 | 显示全部楼层
高手啊
回复 支持 反对

使用道具 举报

0

主题

3

帖子

16

积分

新手上路

Rank: 1

积分
16
发表于 2021-10-27 11:43:03 | 显示全部楼层
我来了,
回复

使用道具 举报

2

主题

1145

帖子

3455

积分

4K家园VIP

Rank: 9Rank: 9Rank: 9

积分
3455
发表于 2021-10-27 14:31:08 | 显示全部楼层
广告位,,坐下看看
回复 支持 反对

使用道具 举报

201

主题

1689

帖子

4627

积分

4K家园VIP

Rank: 9Rank: 9Rank: 9

积分
4627
发表于 2021-10-27 16:08:06 | 显示全部楼层
前排顶,很好!
回复 支持 反对

使用道具 举报

0

主题

9

帖子

36

积分

新手上路

Rank: 1

积分
36
发表于 2021-10-27 16:18:09 | 显示全部楼层
广告位,,坐下看看
回复 支持 反对

使用道具 举报

0

主题

6718

帖子

1万

积分

4K家园VIP

Rank: 9Rank: 9Rank: 9

积分
15606
发表于 2021-10-27 21:25:09 | 显示全部楼层
马女孩4k
回复

使用道具 举报

0

主题

1

帖子

6

积分

新手上路

Rank: 1

积分
6
发表于 2021-10-28 01:57:05 | 显示全部楼层
支持
回复

使用道具 举报

2

主题

1612

帖子

4378

积分

4K家园VIP

Rank: 9Rank: 9Rank: 9

积分
4378
发表于 2021-10-28 10:42:49 | 显示全部楼层
好像还可以
回复 支持 反对

使用道具 举报

0

主题

3

帖子

12

积分

新手上路

Rank: 1

积分
12
发表于 2021-10-28 16:02:55 来自手机 | 显示全部楼层
顶一个
回复

使用道具 举报

您需要登录后才可以回帖 登录 | 立即注册

本版积分规则

精彩图文
Archiver|手机版|TAG|Sitemap|新帖|专题|联系我们:邮箱: 4kjia.com@gmail.com   

4k家园   ©2019