[4K电影] Madame X (2021) 4K高清版下载

[复制链接]

1134

主题

1211

帖子

9838

积分

超级版主

Rank: 8Rank: 8

积分
9838
 楼主| 发表于 2021-10-27 10:44:28 | 显示全部楼层 |阅读模式
本帖最后由 最爱4K哟 于 2021-10-27 10:51 编辑

MV5BYzk5ZWE4YzEtODI5OC00M2Q0LTg4NmMtNzNkZGEyZDU4ZTAxXkEyXkFqcGdeQXVyMTM1MTE1NDMx.jpg

◎片  名 Madame.X
◎年  代 2021
◎产  地 美国
◎类  别 纪录片/音乐
◎语  言 英语
◎上映日期 2021 年 10 月 8 日(美国)
◎IMDb评分  6.8/10 from 591 users
◎IMDb链接  https://www.imdb.com/title/tt15052172/
◎片  长 89分钟
◎导  演 里卡多·戈麦斯SKNX
◎演  员 麦当娜
                   阿拉马利克·威廉姆斯


◎简  介

         这部电影在葡萄牙里斯本拍摄,捕捉了这位流行偶像罕见而狂喜的巡回演出,受到全球观众的好评。前所未有的亲密流媒体体验将带领观众踏上一段与麦当娜无畏的角色 X 夫人一样引人入胜和大胆的旅程,她是一位周游世界的秘密特工,改变身份,为自由而战,为黑暗的地方带来光明。
General
Complete name                  : H:\Madame.X.2021.2160p.WEB-DL.DDP5.1.x265-TEPES.mkv
Format                         : Matroska
Format version                 : Version 4
File size                      : 7.75 GiB
Duration                       : 1 h 56 min
Overall bit rate               : 9 494 kb/s
Writing application            : mkvmerge v62.0.0 ('Apollo') 64-bit
Writing library                : libebml v1.4.2 + libmatroska v1.6.4

Video
ID                             : 1
Format                         : HEVC
Format/Info                    : High Efficiency Video Coding
Format profile                 : Main@L5@Main
Codec ID                       : V_MPEGH/ISO/HEVC
Duration                       : 1 h 56 min
Bit rate                       : 9 113 kb/s
Width                          : 3 840 pixels
Height                         : 2 160 pixels
Display aspect ratio           : 16:9
Frame rate mode                : Constant
Frame rate                     : 23.976 (24000/1001) FPS
Color space                    : YUV
Chroma subsampling             : 4:2:0
Bit depth                      : 8 bits
Bits/(Pixel*Frame)             : 0.046
Stream size                    : 7.44 GiB (96%)
Writing library                : x265 3.5+1-f0c1022b6:[Linux][GCC 9.3.0][64 bit] 8bit
Encoding settings              : cpuid=1111039 / frame-threads=3 / wpp / no-pmode / no-pme / no-psnr / no-ssim / log-level=2 / input-csp=1 / input-res=3840x2160 / interlace=0 / total-frames=0 / level-idc=0 / high-tier=1 / uhd-bd=0 / ref=4 / no-allow-non-conformance / repeat-headers / annexb / no-aud / no-eob / no-eos / no-hrd / info / hash=0 / no-temporal-layers / open-gop / min-keyint=48 / keyint=48 / gop-lookahead=0 / bframes=4 / b-adapt=2 / b-pyramid / bframe-bias=0 / rc-lookahead=25 / lookahead-slices=4 / scenecut=0 / hist-scenecut=0 / radl=0 / no-splice / no-intra-refresh / ctu=64 / min-cu-size=8 / rect / no-amp / max-tu-size=32 / tu-inter-depth=1 / tu-intra-depth=1 / limit-tu=0 / rdoq-level=2 / dynamic-rd=0.00 / no-ssim-rd / signhide / no-tskip / nr-intra=0 / nr-inter=0 / no-constrained-intra / strong-intra-smoothing / max-merge=3 / limit-refs=3 / limit-modes / me=3 / subme=3 / merange=57 / temporal-mvp / no-frame-dup / no-hme / weightp / no-weightb / no-analyze-src-pics / deblock=0:0 / sao / no-sao-non-deblock / rd=4 / selective-sao=4 / no-early-skip / rskip / no-fast-intra / no-tskip-fast / no-cu-lossless / no-b-intra / no-splitrd-skip / rdpenalty=0 / psy-rd=2.00 / psy-rdoq=1.00 / no-rd-refine / no-lossless / cbqpoffs=0 / crqpoffs=0 / rc=abr / bitrate=9505 / qcomp=0.60 / qpstep=4 / stats-write=0 / stats-read=2 / cplxblur=20.0 / qblur=0.5 / vbv-maxrate=11406 / vbv-bufsize=9505 / vbv-init=0.8 / min-vbv-fullness=50.0 / max-vbv-fullness=80.0 / ipratio=1.40 / pbratio=1.30 / aq-mode=2 / aq-strength=1.00 / cutree / zone-count=0 / no-strict-cbr / qg-size=32 / no-rc-grain / qpmax=69 / qpmin=0 / no-const-vbv / sar=1 / overscan=0 / videoformat=5 / range=0 / colorprim=1 / transfer=1 / colormatrix=1 / chromaloc=0 / display-window=0 / cll=0,0 / min-luma=0 / max-luma=255 / log2-max-poc-lsb=8 / vui-timing-info / vui-hrd-info / slices=1 / no-opt-qp-pps / no-opt-ref-list-length-pps / no-multi-pass-opt-rps / scenecut-bias=0.05 / hist-threshold=0.03 / no-opt-cu-delta-qp / no-aq-motion / no-hdr10 / no-hdr10-opt / no-dhdr10-opt / no-idr-recovery-sei / analysis-reuse-level=0 / analysis-save-reuse-level=0 / analysis-load-reuse-level=0 / scale-factor=0 / refine-intra=0 / refine-inter=0 / refine-mv=1 / refine-ctu-distortion=0 / no-limit-sao / ctu-info=0 / no-lowpass-dct / refine-analysis-type=0 / copy-pic=1 / max-ausize-factor=1.0 / no-dynamic-refine / no-single-sei / no-hevc-aq / no-svt / no-field / qp-adaptation-range=1.00 / scenecut-aware-qp=0conformance-window-offsets / right=0 / bottom=0 / decoder-max-rate=0 / no-vbv-live-multi-pass
Language                       : English
Default                        : Yes
Forced                         : No
Color range                    : Limited
Color primaries                : BT.709
Transfer characteristics       : BT.709
Matrix coefficients            : BT.709

Audio
ID                             : 2
Format                         : E-AC-3
Format/Info                    : Enhanced AC-3
Commercial name                : Dolby Digital Plus
Codec ID                       : A_EAC3
Duration                       : 1 h 56 min
Bit rate mode                  : Constant
Bit rate                       : 192 kb/s
Channel(s)                     : 6 channels
Channel layout                 : L R C LFE Ls Rs
Sampling rate                  : 48.0 kHz
Frame rate                     : 31.250 FPS (1536 SPF)
Compression mode               : Lossy
Stream size                    : 161 MiB (2%)
Language                       : English
Service kind                   : Complete Main
Default                        : Yes
Forced                         : No

Text
ID                             : 3
Format                         : UTF-8
Codec ID                       : S_TEXT/UTF8
Codec ID/Info                  : UTF-8 Plain Text
Language                       : English
Default                        : No
Forced                         : No

下载地址

游客,如果您要查看本帖隐藏内容请回复







上一篇:Saving.Sloane (2021) 4K高清版下载
下一篇:大智若愚(内封简繁中字) / Nobody's Fool (2018) 4K高清版下载
回复

使用道具 举报

48

主题

1481

帖子

4313

积分

4K家园VIP

Rank: 9Rank: 9Rank: 9

积分
4313
发表于 2021-10-27 10:44:33 来自手机 | 显示全部楼层
前排支持下
回复 支持 反对

使用道具 举报

0

主题

6718

帖子

1万

积分

4K家园VIP

Rank: 9Rank: 9Rank: 9

积分
15606
发表于 2021-10-27 11:34:09 | 显示全部楼层
太好啦&萬分感謝版主的無私發佈分享%
回复 支持 反对

使用道具 举报

0

主题

9

帖子

36

积分

新手上路

Rank: 1

积分
36
发表于 2021-10-27 16:18:38 | 显示全部楼层
广告位,,坐下看看
回复 支持 反对

使用道具 举报

匿名  发表于 2021-10-27 21:38:10
4k44111111111
回复 支持 反对

使用道具

44

主题

1428

帖子

4130

积分

4K家园VIP

Rank: 9Rank: 9Rank: 9

积分
4130
发表于 2021-10-28 09:25:15 | 显示全部楼层
沙发???
回复 支持 反对

使用道具 举报

52

主题

1483

帖子

4269

积分

4K家园VIP

Rank: 9Rank: 9Rank: 9

积分
4269
发表于 2021-10-28 17:24:17 | 显示全部楼层
占坑编辑ing
回复 支持 反对

使用道具 举报

48

主题

1493

帖子

4281

积分

4K家园VIP

Rank: 9Rank: 9Rank: 9

积分
4281
发表于 2021-10-28 18:07:07 来自手机 | 显示全部楼层
嘘,低调。
回复 支持 反对

使用道具 举报

201

主题

1689

帖子

4627

积分

4K家园VIP

Rank: 9Rank: 9Rank: 9

积分
4627
发表于 2021-10-28 19:44:53 | 显示全部楼层
差评
回复 支持 反对

使用道具 举报

0

主题

1

帖子

6

积分

4K家园VIP

Rank: 9Rank: 9Rank: 9

积分
6
发表于 2021-11-7 12:47:39 | 显示全部楼层
多谢分享啊,,,,。。
回复 支持 反对

使用道具 举报

您需要登录后才可以回帖 登录 | 立即注册

本版积分规则

精彩图文
Archiver|手机版|TAG|Sitemap|新帖|专题|联系我们:邮箱: 4kjia.com@gmail.com   

4k家园   ©2019