[4K电影] 丝绸之路 / Silk Road (2021) 4K高清版本下载

[复制链接]

1130

主题

1203

帖子

9797

积分

超级版主

Rank: 8Rank: 8

积分
9797
 楼主| 发表于 2021-10-28 21:27:07 | 显示全部楼层 |阅读模式
QQ图片20211028212531_副本.png

◎译  名 丝绸之路/丝绸之路的僵局
◎片  名 Silk Road
◎年  代 2021
◎产  地 美国
◎类  别 剧情/惊悚/犯罪
◎语  言 英语
◎上映日期 2021-02-19(美国)
◎IMDb评分  6.0/10 from 4231 users
◎IMDb链接  https://www.imdb.com/title/tt7937254/
◎豆瓣评分 5.5/10 from 559 users
◎豆瓣链接 https://movie.douban.com/subject/30448876/
◎片  长 112分钟
◎主  演 尼克·罗宾森 Nick Robinson
        亚历山德拉·希普 Alexandra Shipp
        吉米·辛普森 Jimmi Simpson
        杰森·克拉克 Jason Clarke
        保罗·布特 Paul Blott
        达里尔·布里特-吉布森 Darrell Britt-Gibson
        丹尼尔·戴维·斯图尔特 Daniel David Stewart
        亚历珊德拉?瑞秋·拉贝 Alexandra Rachael Rabe
        肯尼斯·米勒 Kenneth Miller
        凯蒂·阿赛尔顿 Katie Aselton
        贝丝·贝利 Beth Bailey
        威尔·罗普 Will Ropp
        梅格·史密斯 Meg Smith
        崔维斯·汉默 Travis Hammer
        保罗·沃尔特·豪泽 Paul Walter Hauser
        Mike Miller
        罗莉凯恩 Raleigh Cain
        Phil Burke
        赛丽·罗杰斯 Tsailii Rogers
        罗德里戈·罗哈斯 Rodrigo Rojas
        斯科特·武田 Scott Takeda


◎简  介  


  尼克·罗宾森、杰森·克拉克将主演犯罪题材新片[丝绸之路](Silk Road,暂译)。本片由蒂勒·罗素([耻归故里])执导,根据大卫·库什纳发表在《滚石》杂志的文章《丝绸之路的僵局》(Dead End on Silk Road)改编。文章讲述黑客、毒贩罗斯·乌布里希特经营着一个庞大的网上黑市。本片将聚焦乌布里希特以及决心搞垮这个年轻主脑价值10亿美元帝国的缉毒员间的故事。




◎简  介


         尼克·罗宾森、杰森·克拉克将主演犯罪题材新片[丝绸之路](Silk Road,暂译)。本片由蒂勒·罗素([耻归故里])执导,根据大卫·库什纳发表在《滚石》杂志的文章《丝绸之路的僵局》(Dead End on Silk Road)改编。文章讲述黑客、毒贩罗斯·乌布里希特经营着一个庞大的网上黑市。本片将聚焦乌布里希特以及决心搞垮这个年轻主脑价值10亿美元帝国的缉毒员间的故事。
Video
ID : 1
Format : HEVC
Format/Info : High Efficiency Video Coding
Format profile : Main@L5@High
Codec ID : V_MPEGH/ISO/HEVC
Duration : 1 h 56 min
Bit rate : 14.3 Mb/s
Width : 3 840 pixels
Height : 2 160 pixels
Display aspect ratio : 16:9
Frame rate mode : Constant
Frame rate : 23.976 (23976/1000) FPS
Color space : YUV
Chroma subsampling : 4:2:0
Bit depth : 8 bits
Bits/(Pixel*Frame) : 0.072
Stream size : 11.6 GiB (84%)
Language : English
Default : Yes
Forced : No
Color range : Limited
Color primaries : BT.709
Transfer characteristics : BT.709
Matrix coefficients : BT.709

Audio #1
ID : 2
ID in the original source medium : 4352 (0x1100)
Format : DTS XLL
Format/Info : Digital Theater Systems
Commercial name : DTS-HD Master Audio
Codec ID : A_DTS
Duration : 1 h 56 min
Bit rate mode : Variable
Bit rate : 2 167 kb/s
Channel(s) : 6 channels
Channel layout : C L R Ls Rs LFE
Sampling rate : 48.0 kHz
Frame rate : 93.750 FPS (512 SPF)
Bit depth : 24 bits
Compression mode : Lossless
Delay relative to video : 4 s 500 ms
Stream size : 1.77 GiB (13%)
Title : DTS-HD MA 5.1
Language : English
Default : Yes
Forced : No
Original source medium : Blu-ray

Audio #2
ID : 3
Format : AAC LC
Format/Info : Advanced Audio Codec Low Complexity
Codec ID : A_AAC-2
Duration : 1 h 56 min
Bit rate : 445 kb/s
Channel(s) : 6 channels
Channel layout : C L R Ls Rs LFE
Sampling rate : 48.0 kHz
Frame rate : 46.875 FPS (1024 SPF)
Compression mode : Lossy
Stream size : 371 MiB (3%)
Title : AAC 5.1
Language : English
Default : No
Forced : No

Text #1
ID : 4
Format : UTF-8
Codec ID : S_TEXT/UTF8
Codec ID/Info : UTF-8 Plain Text
Duration : 1 h 47 min
Bit rate : 71 b/s
Count of elements : 1619
Stream size : 56.7 KiB (0%)
Title : English-SRT
Language : English
Default : Yes
Forced : No

Text #2
ID : 5
ID in the original source medium : 4608 (0x1200)
Format : PGS
Muxing mode : zlib
Codec ID : S_HDMV/PGS
Codec ID/Info : Picture based subtitle format used on BDs/HD-DVDs
Duration : 1 h 48 min
Bit rate : 47.4 kb/s
Count of elements : 3458
Stream size : 36.8 MiB (0%)
Title : English-PGS
Language : English
Default : No
Forced : No
Original source medium : Blu-ray

Text #3
ID : 6
ID in the original source medium : 4609 (0x1201)
Format : PGS
Muxing mode : zlib
Codec ID : S_HDMV/PGS
Codec ID/Info : Picture based subtitle format used on BDs/HD-DVDs
Duration : 1 h 48 min
Bit rate : 42.0 kb/s
Count of elements : 3168
Stream size : 32.7 MiB (0%)
Title : Spanish-PGS
Language : Spanish
Default : No
Forced : No
Original source medium : Blu-ray

Menu
00:00:00.000 : en:Chapter 01
00:04:57.797 : en:Chapter 02
00:10:53.986 : en:Chapter 03
00:18:47.251 : en:Chapter 04
00:24:07.821 : en:Chapter 05
00:30:02.759 : en:Chapter 06
00:34:28.733 : en:Chapter 07
00:40:52.491 : en:Chapter 08
00:47:19.545 : en:Chapter 09
00:55:24.237 : en:Chapter 10
01:04:29.073 : en:Chapter 11
01:13:10.052 : en:Chapter 12
01:21:47.819 : en:Chapter 13
01:30:01.729 : en:Chapter 14
01:37:16.163 : en:Chapter 15
01:44:17.084 : en:Chapter 16

迅雷下载资源速度为零,资源敏感或被和谐时,推荐使用qBittorrent等无限速下载软件,有条件的推荐115更好的下载软件!

下载地址

游客,如果您要查看本帖隐藏内容请回复








上一篇:A.Sunburnt.Christmas (2021) 4K高清版本下载
下一篇:鬼影实录6 / Paranormal.Activity.Next.of.Kin (2021) 4K高清版本下载
回复

使用道具 举报

0

主题

1333

帖子

4013

积分

4K家园VIP

Rank: 9Rank: 9Rank: 9

积分
4013
发表于 2021-10-28 21:27:11 | 显示全部楼层
楼主这资源不错,我收藏了
回复 支持 反对

使用道具 举报

0

主题

6676

帖子

1万

积分

4K家园VIP

Rank: 9Rank: 9Rank: 9

积分
15538
发表于 2021-10-28 21:29:02 | 显示全部楼层
太好啦&萬分感謝版主的無私發佈分享%
回复 支持 反对

使用道具 举报

1

主题

1301

帖子

3921

积分

4K家园VIP

Rank: 9Rank: 9Rank: 9

积分
3921
发表于 2021-10-29 00:29:15 来自手机 | 显示全部楼层
我擦!我要沙发!
回复 支持 反对

使用道具 举报

4

主题

1620

帖子

4460

积分

4K家园VIP

Rank: 9Rank: 9Rank: 9

积分
4460
发表于 2021-10-29 11:24:42 | 显示全部楼层
顶起出售广告位
回复 支持 反对

使用道具 举报

0

主题

10

帖子

52

积分

新手上路

Rank: 1

积分
52
发表于 2021-10-29 12:07:06 | 显示全部楼层
能下载否?
回复

使用道具 举报

62

主题

1549

帖子

4481

积分

4K家园VIP

Rank: 9Rank: 9Rank: 9

积分
4481
发表于 2021-10-30 03:16:20 | 显示全部楼层
嘘,低调。
回复 支持 反对

使用道具 举报

0

主题

1607

帖子

4451

积分

4K家园VIP

Rank: 9Rank: 9Rank: 9

积分
4451
发表于 2021-10-30 04:20:17 | 显示全部楼层
一直在看
回复 支持 反对

使用道具 举报

0

主题

2

帖子

13

积分

新手上路

Rank: 1

积分
13
发表于 2021-11-1 09:13:20 | 显示全部楼层
xiexiellouzhu
回复 支持 反对

使用道具 举报

您需要登录后才可以回帖 登录 | 立即注册

本版积分规则

精彩图文
Archiver|手机版|TAG|Sitemap|新帖|专题|联系我们:邮箱: 4kjia.com@gmail.com   

4k家园   ©2019