报复 / Reprisal (2019) / 第一季全10集 / 4K高清下载

[复制链接]

52

主题

59

帖子

602

积分

版主

Rank: 7Rank: 7Rank: 7

积分
602
 楼主| 发表于 2021-10-29 10:31:35 | 显示全部楼层 |阅读模式
p2573520996_副本.jpg

◎译  名 报复 / 烈女复仇之路(港)
◎片  名 Reprisal
◎年  代 2019
◎产  地 美国
◎类  别 剧情
◎语  言 英语
◎首播日期 2019-12-06(美国)
◎IMDb评分  7.5/10 from 4046 users
◎IMDb链接  https://www.imdb.com/title/tt8594028/
◎豆瓣评分 7.1/10 from 314 users
◎豆瓣链接 https://movie.douban.com/subject/30255196/
◎导  演 乔纳森·范·塔肯
◎编  剧 Josh Corbin
◎主  演 阿比盖尔·斯宾赛
                   罗德里戈·桑托罗
                   梅纳·玛索德
                   麦蒂森·达文波特
                   大卫·达斯马齐连
                   瑞斯·维克菲尔德
                   W·厄尔·布朗
                   肖恩·卡拉汉
                   布拉克·珀尔曼
                   海皮·安德森
                   路易丝·巴恩斯
                   杰森·戴维斯
                   欧文·哈恩
                   马绍尔·贝尔
                   丽亚·德拉利亚
                   休·B·赫鲁伯
                   Gilbert Owuor
                   Jeremy Harris
                   Gerrell Boney
                   Craig Tate
                   Clifton Pearsall
                   Isiah Jenkins
                   Wavyy Jonez
                   Sanna Haynes
                   Paul Vincent Freeman



◎简  介

      《报复 Reprisal》由艾美奖得奖剧集《使女的故事 The Handmaid's Tale》的执行制作人Warren Littlefield制作﹑Josh Corbin编剧﹑英国学院奖提名者Jonathan Van Tulleken执导, A+E Studios和T he Littlefield Company参与制片。
  《报复》讲述了一个凶狠的蛇蝎美人Katherine Harlow被自己哥哥及他的帮派遗弃等死,但大难不死的她决定向这群家伙报复。二度被砍的《穿越时间线 Timeless》主演Abigail Spencer饰演女主角Katherine Harlow,其余演员包括Rodrigo Santoro﹑Mena Massoud﹑Madison Davenport﹑Rhys Wakefield﹑David Dastmalchian﹑W. Earl Brown及Gilbert Owuor。
General
Complete name                  : H:\4K@美剧Reprisal.S01E01.The.Tale.of.Harold.Horpus.2160p.HULU.WEB-DL.DDP5.1.DV.HEVC-TEPES.mkv
Format                         : Matroska
Format version                 : Version 4
File size                      : 3.08 GiB
Duration                       : 56 min 29 s
Overall bit rate               : 7 813 kb/s
Writing application            : mkvmerge v62.0.0 ('Apollo') 64-bit
Writing library                : libebml v1.4.2 + libmatroska v1.6.4

Video
ID                             : 1
Format                         : HEVC
Format/Info                    : High Efficiency Video Coding
Format profile                 : Main 10@L5.1@Main
HDR format                     : Dolby Vision, Version 1.0, dvhe.08.06, BL+RPU, HDR10 compatible / SMPTE ST 2094 App 4, Version 1, HDR10+ Profile B compatible
Codec ID                       : V_MPEGH/ISO/HEVC
Duration                       : 56 min 29 s
Bit rate                       : 7 555 kb/s
Width                          : 3 840 pixels
Height                         : 2 160 pixels
Display aspect ratio           : 16:9
Frame rate mode                : Constant
Frame rate                     : 23.976 (24000/1001) FPS
Color space                    : YUV
Chroma subsampling             : 4:2:0 (Type 2)
Bit depth                      : 10 bits
Bits/(Pixel*Frame)             : 0.038
Stream size                    : 2.98 GiB (97%)
Language                       : English
Default                        : Yes
Forced                         : No
Color range                    : Limited
Color primaries                : BT.2020
Transfer characteristics       : PQ
Matrix coefficients            : BT.2020 non-constant
Mastering display color primar : Display P3
Mastering display luminance    : min: 0.0001 cd/m2, max: 1000 cd/m2
Maximum Content Light Level    : 10000 cd/m2
Maximum Frame-Average Light Le : 472 cd/m2

Audio
ID                             : 2
Format                         : E-AC-3
Format/Info                    : Enhanced AC-3
Commercial name                : Dolby Digital Plus
Codec ID                       : A_EAC3
Duration                       : 56 min 29 s
Bit rate mode                  : Constant
Bit rate                       : 256 kb/s
Channel(s)                     : 6 channels
Channel layout                 : L R C LFE Ls Rs
Sampling rate                  : 48.0 kHz
Frame rate                     : 31.250 FPS (1536 SPF)
Compression mode               : Lossy
Stream size                    : 103 MiB (3%)
Language                       : English
Service kind                   : Complete Main
Default                        : Yes
Forced                         : No

Text #1
ID                             : 3
Format                         : UTF-8
Codec ID                       : S_TEXT/UTF8
Codec ID/Info                  : UTF-8 Plain Text
Duration                       : 52 min 48 s
Bit rate                       : 49 b/s
Count of elements              : 669
Stream size                    : 19.3 KiB (0%)
Language                       : English
Default                        : No
Forced                         : No

Text #2
ID                             : 4
Format                         : UTF-8
Codec ID                       : S_TEXT/UTF8
Codec ID/Info                  : UTF-8 Plain Text
Duration                       : 54 min 10 s
Bit rate                       : 65 b/s
Count of elements              : 1026
Stream size                    : 26.1 KiB (0%)
Title                          : SDH
Language                       : English
Default                        : No
Forced                         : No

Text #3
ID                             : 5
Format                         : UTF-8
Codec ID                       : S_TEXT/UTF8
Codec ID/Info                  : UTF-8 Plain Text
Duration                       : 54 min 10 s
Bit rate                       : 59 b/s
Count of elements              : 930
Stream size                    : 23.8 KiB (0%)
Title                          : SDH
Language                       : Spanish
Default                        : No
Forced                         : No
下载地址


游客,如果您要查看本帖隐藏内容请回复






上一篇:武当派:美国传奇 (2021) / 第二季全10集 / 4K高清下载
下一篇:吸血鬼生活 / What We Do in the Shadows (2021) /第三季全 /4K高清下载
回复

使用道具 举报

6

主题

1385

帖子

4031

积分

中级会员

Rank: 4

积分
4031
发表于 2021-10-29 10:32:27 来自手机 | 显示全部楼层
都不知道说的啥
回复 支持 反对

使用道具 举报

1

主题

1296

帖子

3710

积分

4K家园VIP

Rank: 9Rank: 9Rank: 9

积分
3710
发表于 2021-10-29 10:46:15 | 显示全部楼层
求沙发
回复 支持 反对

使用道具 举报

0

主题

6718

帖子

1万

积分

4K家园VIP

Rank: 9Rank: 9Rank: 9

积分
15606
发表于 2021-10-29 11:35:07 | 显示全部楼层
太好啦&萬分感謝版主的無私發佈分享%
回复 支持 反对

使用道具 举报

0

主题

19

帖子

77

积分

新手上路

Rank: 1

积分
77
发表于 2021-10-29 14:56:31 | 显示全部楼层
谢谢分享。。。
回复

使用道具 举报

3

主题

1571

帖子

4307

积分

4K家园VIP

Rank: 9Rank: 9Rank: 9

积分
4307
发表于 2021-10-30 09:42:30 | 显示全部楼层
发发呆,回回帖,工作结束~
回复 支持 反对

使用道具 举报

0

主题

6718

帖子

1万

积分

4K家园VIP

Rank: 9Rank: 9Rank: 9

积分
15606
发表于 2021-10-30 10:51:44 | 显示全部楼层
太好啦&萬分感謝版主的無私發佈分享%
回复 支持 反对

使用道具 举报

3

主题

1363

帖子

3915

积分

4K家园VIP

Rank: 9Rank: 9Rank: 9

积分
3915
发表于 2021-10-30 10:54:41 | 显示全部楼层
元芳你怎么看?
回复 支持 反对

使用道具 举报

0

主题

31

帖子

546

积分

新手上路

Rank: 1

积分
546
发表于 2021-10-30 10:56:15 | 显示全部楼层
谢谢谢谢谢谢谢谢
回复 支持 反对

使用道具 举报

50

主题

1432

帖子

4198

积分

4K家园VIP

Rank: 9Rank: 9Rank: 9

积分
4198
发表于 2021-10-30 20:05:56 | 显示全部楼层
小白一个 顶一下
回复 支持 反对

使用道具 举报

您需要登录后才可以回帖 登录 | 立即注册

本版积分规则

精彩图文
Archiver|手机版|TAG|Sitemap|新帖|专题|联系我们:邮箱: 4kjia.com@gmail.com   

4k家园   ©2019