[4Kjia独享4K资源] 蛇首 /Snakehead (2021) 4K高清版本下载

[复制链接]

1130

主题

1203

帖子

9797

积分

超级版主

Rank: 8Rank: 8

积分
9797
 楼主| 发表于 2021-10-29 14:16:39 | 显示全部楼层 |阅读模式
本帖最后由 最爱4K哟 于 2021-10-29 15:03 编辑

QQ图片20211029140436_副本.png

◎译  名 蛇首
◎片  名 Snakehead
◎年  代 2021
◎产  地 美国
◎类  别 剧情 / 动作 / 惊悚 / 犯罪
◎语  言 英语
◎上映日期 2021-04-01(圣巴巴拉国际电影节) / 2021-10-29(美国)
◎IMDb评分  7.0/10 from 50 users
◎IMDb链接  https://www.imdb.com/title/tt4181232/
◎豆瓣评分 0/10 from 0 users
◎豆瓣链接 https://movie.douban.com/subject/35545516/
◎片  长 96分钟
◎导  演 梁伊丹
◎编  剧 梁伊丹
◎主  演 姜成镐
                   德文·迪普
                   西莉亚·奥
                   张舒雅


◎简  介



         一名中国移民在试图让家人过上更好的生活时,被卷入了国际人口走私犯罪团伙。
General
Complete name                  : H:\4K@电影:Snakehead.2021.2160p.WEB-DL.DD5.1.HEVC-CMRG.mkv
Format                         : Matroska
Format version                 : Version 4
File size                      : 8.38 GiB
Duration                       : 1 h 36 min
Overall bit rate               : 12.4 Mb/s
Encoded date                   : UTC 2021-10-29 04:03:35
Writing application            : mkvmerge v62.0.0 ('Apollo') 64-bit
Writing library                : libebml v1.4.2 + libmatroska v1.6.4
IsTruncated                    : Yes

Video
ID                             : 1
Format                         : HEVC
Format/Info                    : High Efficiency Video Coding
Format profile                 : Main 10@L5@High
Codec ID                       : V_MPEGH/ISO/HEVC
Duration                       : 1 h 36 min
Bit rate                       : 11.8 Mb/s
Width                          : 3 836 pixels
Height                         : 1 592 pixels
Display aspect ratio           : 2.40:1
Frame rate mode                : Constant
Frame rate                     : 23.976 (24000/1001) FPS
Color space                    : YUV
Chroma subsampling             : 4:2:0
Bit depth                      : 10 bits
Bits/(Pixel*Frame)             : 0.080
Stream size                    : 7.96 GiB (95%)
Default                        : Yes
Forced                         : No
Color range                    : Limited
Color primaries                : BT.709
Transfer characteristics       : BT.709
Matrix coefficients            : BT.709

Audio
ID                             : 2
Format                         : AC-3
Format/Info                    : Audio Coding 3
Commercial name                : Dolby Digital
Codec ID                       : A_AC3
Duration                       : 1 h 36 min
Bit rate mode                  : Constant
Bit rate                       : 384 kb/s
Channel(s)                     : 6 channels
Channel layout                 : L R C LFE Ls Rs
Sampling rate                  : 48.0 kHz
Frame rate                     : 31.250 FPS (1536 SPF)
Compression mode               : Lossy
Stream size                    : 266 MiB (3%)
Title                          : English
Language                       : English
Service kind                   : Complete Main
Default                        : No
Forced                         : No

Text
ID                             : 3
Format                         : UTF-8
Codec ID                       : S_TEXT/UTF8
Codec ID/Info                  : UTF-8 Plain Text
Title                          : English [Forced]
Language                       : English
Default                        : No
Forced                         : Yes

下载地址

****此区域为收费内容****    需支付 9 金币后可查看立即购买

游客,如果您要查看本帖隐藏内容请回复






上一篇:鬼影实录6 / Paranormal.Activity.Next.of.Kin (2021) 4K高清版本下载
下一篇:在糟糕的日子里 / I onde dager (2021) 4K高清版本下载
回复

使用道具 举报

1

主题

1267

帖子

3815

积分

4K家园VIP

Rank: 9Rank: 9Rank: 9

积分
3815
发表于 2021-10-29 14:16:43 | 显示全部楼层
4K应该不错,我也下个看看
回复 支持 反对

使用道具 举报

0

主题

6676

帖子

1万

积分

4K家园VIP

Rank: 9Rank: 9Rank: 9

积分
15538
发表于 2021-10-29 15:28:40 | 显示全部楼层
太好啦&萬分感謝版主的無私發佈分享%
回复 支持 反对

使用道具 举报

0

主题

205

帖子

1251

积分

注册会员

Rank: 2

积分
1251
发表于 2021-10-29 15:56:09 | 显示全部楼层
这东西我收了!谢谢楼主
回复 支持 反对

使用道具 举报

0

主题

4

帖子

30

积分

新手上路

Rank: 1

积分
30
发表于 2021-10-29 19:06:46 | 显示全部楼层
感谢分享
回复

使用道具 举报

2

主题

8

帖子

53

积分

新手上路

Rank: 1

积分
53
发表于 2021-10-29 19:17:37 | 显示全部楼层
就得看4K
回复

使用道具 举报

0

主题

6

帖子

37

积分

新手上路

Rank: 1

积分
37
发表于 2021-10-29 22:32:28 | 显示全部楼层
是个非法所得官方回顾回顾梵蒂冈fgh
回复 支持 反对

使用道具 举报

0

主题

31

帖子

543

积分

新手上路

Rank: 1

积分
543
发表于 2021-10-30 10:52:06 | 显示全部楼层
谢谢谢谢谢谢
回复 支持 反对

使用道具 举报

1

主题

1350

帖子

3858

积分

4K家园VIP

Rank: 9Rank: 9Rank: 9

积分
3858
发表于 2021-10-31 06:54:21 来自手机 | 显示全部楼层
怎么这么大,希望我电视能看啊
回复 支持 反对

使用道具 举报

57

主题

1493

帖子

4335

积分

4K家园VIP

Rank: 9Rank: 9Rank: 9

积分
4335
发表于 2021-11-1 01:52:33 | 显示全部楼层
感谢楼主的分享,还是阔以滴
回复 支持 反对

使用道具 举报

您需要登录后才可以回帖 登录 | 立即注册

本版积分规则

精彩图文
Archiver|手机版|TAG|Sitemap|新帖|专题|联系我们:邮箱: 4kjia.com@gmail.com   

4k家园   ©2019