吸血鬼生活 / What We Do in the Shadows (2021) /第三季全 /4K高清下载

[复制链接]

52

主题

59

帖子

602

积分

版主

Rank: 7Rank: 7Rank: 7

积分
602
 楼主| 发表于 2021-10-30 15:06:19 | 显示全部楼层 |阅读模式
本帖最后由 美剧小虾 于 2021-11-25 15:40 编辑

MV5BNTA5NWUwN2MtNTM2ZC00ZGVlLThmMDAtN2MxYmEzNWUxNTgxXkEyXkFqcGdeQXVyMzQ2MDI5NjU@.jpg MV5BNDc0YTAxZDQtMDAxNC00YjI0LTg5MTAtYmUzMjQxZGIxNmQ4XkEyXkFqcGdeQXVyNTQ2MjM5MTg@.jpg

◎译  名 吸血鬼生活 第三季
◎片  名 What We Do in the Shadows Season 3
◎年  代 2021
◎产  地 美国
◎类  别 喜剧 / 恐怖 / 奇幻
◎语  言 英语
◎上映日期 2021-09-02(美国)
◎IMDb评分  8.5/10 from 51616 users
◎IMDb链接  https://www.imdb.com/title/tt7908628/
◎豆瓣评分 9.4/10 from 277users
◎豆瓣链接 https://douban.com/subject/35077272/
◎集  数 10
◎导  演 凯尔·纽瓦切克
◎编  剧 杰梅奈·克莱门特 / 塔伊加·维迪提
◎主  演 凯万·诺瓦克
       马特·贝里
       娜塔希亚·德米特里厄斯
       劳伦·科林斯
                   卡丽娜·格泽拉
                   格泽拉先生
                   查德·艾伦


◎简  介


  本剧围绕四名共同“生活”上百年的吸血鬼展开,第二季中他们将继续努力在当代美国找寻自我方向,啼笑皆非地面对人类超级碗派对、网络暴民、新晋加官恋权的精力吸血鬼,以及所有自在游荡于纽约都会区的幽灵、女巫、招魂师、僵尸和潜行刺客

GeneralComplete name                  : D:\What.We.Do.in.the.Shadows.S03E01.2160p.WEB.H265-GLHF.mkv
Format                         : Matroska
Format version                 : Version 4
File size                      : 1.52 GiB
Duration                       : 24 min 21 s
Overall bit rate               : 8 943 kb/s
Writing application            : mkvmerge v59.0.0 ('Shining Star') 64-bit
Writing library                : libebml v1.4.2 + libmatroska v1.6.4
IsTruncated                    : Yes

Video
ID                             : 1
Format                         : HEVC
Format/Info                    : High Efficiency Video Coding
Format profile                 : Main 10@L5.1@Main
Codec ID                       : V_MPEGH/ISO/HEVC
Duration                       : 24 min 21 s
Bit rate                       : 8 509 kb/s
Width                          : 3 840 pixels
Height                         : 2 160 pixels
Display aspect ratio           : 16:9
Frame rate mode                : Constant
Frame rate                     : 23.976 (24000/1001) FPS
Color space                    : YUV
Chroma subsampling             : 4:2:0
Bit depth                      : 10 bits
Bits/(Pixel*Frame)             : 0.043
Stream size                    : 1.45 GiB (95%)
Default                        : Yes
Forced                         : No

Audio
ID                             : 2
Format                         : E-AC-3
Format/Info                    : Enhanced AC-3
Commercial name                : Dolby Digital Plus
Codec ID                       : A_EAC3
Duration                       : 24 min 21 s
Bit rate mode                  : Constant
Bit rate                       : 256 kb/s
Channel(s)                     : 6 channels
Channel layout                 : L R C LFE Ls Rs
Sampling rate                  : 48.0 kHz
Frame rate                     : 31.250 FPS (1536 SPF)
Compression mode               : Lossy
Delay relative to video        : 24 ms
Stream size                    : 44.6 MiB (3%)
Language                       : English
Service kind                   : Complete Main
Default                        : Yes
Forced                         : No

Text
ID                             : 3
Format                         : UTF-8
Codec ID                       : S_TEXT/UTF8
Codec ID/Info                  : UTF-8 Plain Text
Title                          : English
Language                       : English
Default                        : No
Forced                         : No


下载地址:

游客,如果您要查看本帖隐藏内容请回复


相关《吸血鬼生活  全第一、二、三季》4K高清版本续集下载链接

吸血鬼生活(内嵌中字) (2019) / 第一季全10集 / 4K高清版本下载
吸血鬼生活 (2020) / 第二季全10集 / 4K高清版本下载
吸血鬼生活 / What We Do in the Shadows (2021) /第三季全 /4K高清下载





.

上一篇:报复 / Reprisal (2019) / 第一季全10集 / 4K高清下载
下一篇:[BBC纪录片] 求偶游戏 / The Mating Game (2021) / 5集全 /4K高清下载
回复

使用道具 举报

2

主题

1145

帖子

3455

积分

4K家园VIP

Rank: 9Rank: 9Rank: 9

积分
3455
发表于 2021-10-30 15:06:41 | 显示全部楼层
介是神马?!!
回复 支持 反对

使用道具 举报

2

主题

1298

帖子

3704

积分

4K家园VIP

Rank: 9Rank: 9Rank: 9

积分
3704
发表于 2021-10-30 16:38:15 | 显示全部楼层
正好需要啊
回复 支持 反对

使用道具 举报

0

主题

6676

帖子

1万

积分

4K家园VIP

Rank: 9Rank: 9Rank: 9

积分
15538
发表于 2021-10-30 16:51:35 | 显示全部楼层
太好啦&萬分感謝版主的無私發佈分享%
回复 支持 反对

使用道具 举报

37

主题

1461

帖子

4183

积分

4K家园VIP

Rank: 9Rank: 9Rank: 9

积分
4183
发表于 2021-10-30 17:38:10 来自手机 | 显示全部楼层
楼主呀,,,您太有才了。。。
回复 支持 反对

使用道具 举报

0

主题

1568

帖子

4284

积分

4K家园VIP

Rank: 9Rank: 9Rank: 9

积分
4284
发表于 2021-10-30 18:49:29 | 显示全部楼层
垃圾内容,路过为证。
回复 支持 反对

使用道具 举报

0

主题

1299

帖子

3895

积分

4K家园VIP

Rank: 9Rank: 9Rank: 9

积分
3895
发表于 2021-10-30 21:14:29 | 显示全部楼层
非常好,顶一下
回复 支持 反对

使用道具 举报

您需要登录后才可以回帖 登录 | 立即注册

本版积分规则

精彩图文
Archiver|手机版|TAG|Sitemap|新帖|专题|联系我们:邮箱: 4kjia.com@gmail.com   

4k家园   ©2019