[4K电影] 夜色人生(内封简繁中字) / Live by Night (2016) 4K高清版下载

[复制链接]

1130

主题

1203

帖子

9797

积分

超级版主

Rank: 8Rank: 8

积分
9797
 楼主| 发表于 2021-11-1 09:41:51 | 显示全部楼层 |阅读模式
本帖最后由 最爱4K哟 于 2021-11-1 11:11 编辑

QQ图片20211101104347_副本.png

◎译  名 夜色人生/夜行人生(台)/夜间生活
◎片  名 Live by Night
◎年  代 2016
◎产  地 美国
◎类  别 剧情 / 犯罪
◎语  言 英语
◎上映日期 2016-12-25(美国)
◎IMDb评分 6.4/10 from 50964 users
◎IMDb链接 https://www.imdb.com/title/tt2361317/
◎豆瓣评分 6.5/10 from 7048 users
◎豆瓣链接 https://movie.douban.com/subject/10752547/
◎片  长 129分钟
◎导  演 本·阿弗莱克 Ben Affleck
◎编  剧 本·阿弗莱克 Ben Affleck / 丹尼斯·勒翰 Dennis Lehane
◎主  演 本·阿弗莱克 Ben Affleck
       艾丽·范宁 Elle Fanning
       雷莫·吉罗内 Remo Girone
       布莱丹·格里森 Brendan Gleeson
       罗伯特·格林尼斯特 Robert Glenister
       马修·马希尔 Matthew Maher
       克里斯·梅西纳 Chris Messina
       西耶娜·米勒 Sienna Miller
       佐伊·索尔达娜 Zoe Saldana
       克里斯·库珀 Chris Cooper
       提图斯·维里沃 Titus Welliver
       马克斯·凯塞拉 Max Casella
       克里斯蒂安·克莱门松 Christian Clemenson
       J·D·埃弗摩尔 J.D. Evermore
       奥斯汀·斯威夫特 Austin Swift
       安德鲁·康斯坦丁尼 Andrew Constantini
       德里克·梅耶斯 Derek Mears
       布鲁诺·阿马托 Bruno Amato
       迈克尔·曼特尔 Michael Mantell
       班尼·恰拉麦罗 Benny Ciaramello
       安东尼·迈克尔·豪尔 Anthony Michael Hall
       汤姆·维图 Tom Virtue


◎简  介

  《以夜为生》(Live By Night)根据美国当代著名作家丹尼斯·勒翰(Dennis Lehane)2012年同名小说改编,故事设定在上世纪20、30年代,讲述了一个出身于警察世家的年轻人乔·考夫林(Joe Coughlin)加入黑帮、越陷越深、走上不归路的故事。该书是丹尼斯·勒翰2008年小说《命运之日》(The Given Day)的续篇,共分三部:第一部“波士顿”讲述乔初入黑帮,爱上黑帮老大亚伯·怀特的情妇,结果入狱,成为狱中黑老大马索的心腹;第二部“伊波”讲述乔出狱后,与马索一起扳倒亚伯,在坦帕市自立门户逐渐崛起;第三部“所有暴力的孩子”讲述马索与乔翻脸,双方决战。

  据悉,西耶娜·米勒(Sienna Miller)在片中将扮演黑帮老大的情妇艾玛(Emma);佐伊·萨尔达娜(Zoe Saldana)则将饰演乔在坦帕自立门户时遇到的女子格瑞西耶拉·苏亚雷兹(Graciella Suarez);艾尔·范宁(Elle Fanning)饰演一名野心勃勃的女演员洛瑞塔·菲吉斯(Loretta Figgis),不幸惹上了麻烦。

◎获奖情况

  第22届美国评论家选择电影奖 ?(2017)
  最佳美术指导(提名)


Video
ID : 1
Format : HEVC
Format/Info : High Efficiency Video Coding
Format profile : Main 10@L5@High
HDR format : SMPTE ST 2086, HDR10 compatible
Codec ID : V_MPEGH/ISO/HEVC
Duration : 2 h 8 min
Bit rate : 14.2 Mb/s
Width : 3 840 pixels
Height : 1 600 pixels
Display aspect ratio : 2.40:1
Frame rate mode : Constant
Frame rate : 23.976 FPS
Color space : YUV
Chroma subsampling : 4:2:0 (Type 2)
Bit depth : 10 bits
Bits/(Pixel*Frame) : 0.096
Stream size : 12.8 GiB (61%)
Default : Yes
Forced : No
Color range : Limited
Color primaries : BT.2020
Transfer characteristics : PQ
Matrix coefficients : BT.2020 non-constant
Mastering display color primaries : BT.2020
Mastering display luminance : min: 0.0050 cd/m2, max: 1000 cd/m2
Maximum Content Light Level : 3246 cd/m2
Maximum Frame-Average Light Level : 441 cd/m2

Audio #1
ID : 2
Format : MLP FBA 16-ch
Format/Info : Meridian Lossless Packing FBA with 16-channel presentation
Commercial name : Dolby TrueHD with Dolby Atmos
Codec ID : A_TRUEHD
Duration : 2 h 8 min
Bit rate mode : Variable
Bit rate : 3 372 kb/s
Maximum bit rate : 7 608 kb/s
Channel(s) : 8 channels
Channel layout : L R C LFE Ls Rs Lb Rb
Sampling rate : 48.0 kHz
Frame rate : 1 200.000 FPS (40 SPF)
Compression mode : Lossless
Stream size : 3.04 GiB (15%)
Title : TrueHD 7.1 Atmos
Language : English
Default : Yes
Forced : No
Number of dynamic objects : 11
Bed channel count : 1 channel
Bed channel configuration : LFE

Audio #2
ID : 3
Format : DTS XLL
Format/Info : Digital Theater Systems
Commercial name : DTS-HD Master Audio
Codec ID : A_DTS
Duration : 2 h 8 min
Bit rate mode : Variable
Bit rate : 4 195 kb/s
Channel(s) : 8 channels
Channel layout : C L R LFE Lb Rb Lss Rss
Sampling rate : 48.0 kHz
Frame rate : 93.750 FPS (512 SPF)
Bit depth : 24 bits
Compression mode : Lossless
Stream size : 3.78 GiB (18%)
Title : DTS-HD MA 7.1
Language : English
Default : No
Forced : No

Audio #3
ID : 4
Format : AC-3
Format/Info : Audio Coding 3
Commercial name : Dolby Digital
Codec ID : A_AC3
Duration : 2 h 8 min
Bit rate mode : Constant
Bit rate : 640 kb/s
Channel(s) : 6 channels
Channel layout : L R C LFE Ls Rs
Sampling rate : 48.0 kHz
Frame rate : 31.250 FPS (1536 SPF)
Compression mode : Lossy
Stream size : 590 MiB (3%)
Title : DD 5.1
Language : English
Service kind : Complete Main
Default : No
Forced : No

Audio #4
ID : 5
Format : E-AC-3 JOC
Format/Info : Enhanced AC-3 with Joint Object Coding
Commercial name : Dolby Digital Plus with Dolby Atmos
Codec ID : A_EAC3
Duration : 2 h 8 min
Bit rate mode : Constant
Bit rate : 768 kb/s
Channel(s) : 6 channels
Channel layout : L R C LFE Ls Rs
Sampling rate : 48.0 kHz
Frame rate : 31.250 FPS (1536 SPF)
Compression mode : Lossy
Stream size : 708 MiB (3%)
Title : DDP 5.1 Atmos
Language : English
Service kind : Complete Main
Default : No
Forced : No
Complexity index : 16
Number of dynamic objects : 15
Bed channel count : 1 channel
Bed channel configuration : LFE

Text #1
ID : 6
Format : UTF-8
Codec ID : S_TEXT/UTF8
Codec ID/Info : UTF-8 Plain Text
Duration : 2 h 3 min
Bit rate : 61 b/s
Count of elements : 1710
Stream size : 55.7 KiB (0%)
Language : English
Default : Yes
Forced : No

Text #2
ID : 7
Format : UTF-8
Codec ID : S_TEXT/UTF8
Codec ID/Info : UTF-8 Plain Text
Duration : 2 h 3 min
Bit rate : 66 b/s
Count of elements : 1899
Stream size : 60.3 KiB (0%)
Title : SDH
Language : English
Default : No
Forced : No

Text #3
ID : 8
Format : UTF-8
Codec ID : S_TEXT/UTF8
Codec ID/Info : UTF-8 Plain Text
Duration : 2 h 8 min
Bit rate : 83 b/s
Count of elements : 1708
Stream size : 78.6 KiB (0%)
Language : Bulgarian
Default : No
Forced : No

Text #4
ID : 9
Format : UTF-8
Codec ID : S_TEXT/UTF8
Codec ID/Info : UTF-8 Plain Text
Duration : 2 h 7 min
Bit rate : 49 b/s
Count of elements : 1623
Stream size : 46.5 KiB (0%)
Title : 简体
Language : 中文
Default : No
Forced : No

Text #5
ID : 10
Format : UTF-8
Codec ID : S_TEXT/UTF8
Codec ID/Info : UTF-8 Plain Text
Duration : 2 h 7 min
Bit rate : 45 b/s
Count of elements : 1675
Stream size : 42.9 KiB (0%)
Title : 繁体
Language : 中文
Default : No
Forced : No


Text #6
ID : 11
Format : UTF-8
Codec ID : S_TEXT/UTF8
Codec ID/Info : UTF-8 Plain Text
Duration : 2 h 8 min
Bit rate : 54 b/s
Count of elements : 1708
Stream size : 51.4 KiB (0%)
Language : Czech
Default : No
Forced : No

迅雷下载资源速度为零,资源敏感或被和谐时,推荐使用qBittorrent等无限速下载软件,有条件的推荐115更好的下载软件!

下载地址

游客,如果您要查看本帖隐藏内容请回复

游客,如果您要查看本帖隐藏内容请回复

游客,如果您要查看本帖隐藏内容请回复

游客,如果您要查看本帖隐藏内容请回复




.







上一篇:【首发资源】神偷军团 / Army of Thieves (2021) 4K高清版下载
下一篇:暗夜獠牙(内封简繁中字)/ Night Teeth (2021) 4K高清版下载
回复

使用道具 举报

3

主题

1261

帖子

3805

积分

4K家园VIP

Rank: 9Rank: 9Rank: 9

积分
3805
发表于 2021-11-1 09:41:54 | 显示全部楼层
顶起顶起顶起
回复 支持 反对

使用道具 举报

4

主题

1676

帖子

4662

积分

4K家园VIP

Rank: 9Rank: 9Rank: 9

积分
4662
发表于 2021-11-1 09:42:49 | 显示全部楼层
我也顶起出售广告位
回复 支持 反对

使用道具 举报

2

主题

1663

帖子

4581

积分

4K家园VIP

Rank: 9Rank: 9Rank: 9

积分
4581
发表于 2021-11-1 10:39:13 | 显示全部楼层
试试看吧
回复 支持 反对

使用道具 举报

0

主题

6676

帖子

1万

积分

4K家园VIP

Rank: 9Rank: 9Rank: 9

积分
15538
发表于 2021-11-1 10:51:27 | 显示全部楼层
太好啦&萬分感謝版主的無私發佈分享%
回复 支持 反对

使用道具 举报

1

主题

1344

帖子

3874

积分

4K家园VIP

Rank: 9Rank: 9Rank: 9

积分
3874
发表于 2021-11-1 11:32:18 来自手机 | 显示全部楼层
LZ敢整点更有创意的不?兄弟们等着围观捏~
回复 支持 反对

使用道具 举报

48

主题

1505

帖子

4337

积分

4K家园VIP

Rank: 9Rank: 9Rank: 9

积分
4337
发表于 2021-11-1 11:55:59 | 显示全部楼层
楼猪V5啊
回复 支持 反对

使用道具 举报

0

主题

1

帖子

6

积分

新手上路

Rank: 1

积分
6
发表于 2021-11-1 18:39:45 | 显示全部楼层

milf tits cum

milf tits cum
回复 支持 反对

使用道具 举报

0

主题

664

帖子

2317

积分

注册会员

Rank: 2

积分
2317
发表于 2021-11-1 21:18:49 | 显示全部楼层

感谢楼主分享好片
回复 支持 反对

使用道具 举报

您需要登录后才可以回帖 登录 | 立即注册

本版积分规则

精彩图文
Archiver|手机版|TAG|Sitemap|新帖|专题|联系我们:邮箱: 4kjia.com@gmail.com   

4k家园   ©2019