[4K电影] 蜘蛛侠 / Spider-Man (2002) 4K高清版下载

[复制链接]

1130

主题

1203

帖子

9797

积分

超级版主

Rank: 8Rank: 8

积分
9797
 楼主| 发表于 2021-11-1 10:16:22 | 显示全部楼层 |阅读模式
本帖最后由 最爱4K哟 于 2021-11-1 11:12 编辑

QQ图片20211101110626_副本.png

◎译  名 蜘蛛侠/蜘蛛人(台)
◎片  名 Spider-Man
◎年  代 2002
◎产  地 美国
◎类  别 动作 / 科幻 / 冒险
◎语  言 英语
◎上映日期 2002-05-03(美国) / 2002-08-07(中国大陆)
◎IMDb评分  7.3/10 from 729252 users
◎IMDb链接  https://www.imdb.com/title/tt0145487/
◎豆瓣评分 7.9/10 from 318877 users
◎豆瓣链接 https://movie.douban.com/subject/1306612/
◎片  长 121 分钟
◎导  演 山姆·雷米 Sam Raimi
◎编  剧 大卫·凯普 David Koepp / 斯坦·李 Stan Lee / 史蒂夫·迪特寇 Steve Ditko
◎主  演 托比·马奎尔 Tobey Maguire
      威廉·达福 Willem Dafoe
      克斯汀·邓斯特 Kirsten Dunst
      詹姆斯·弗兰科 James Franco
      克里夫·罗伯逊 Cliff Robertson
      罗斯玛丽·哈里斯 Rosemary Harris
      J·K·西蒙斯 J.K. Simmons
      乔·曼根尼罗 Joe Manganiello
      格里·贝克尔 Gerry Becker
      比尔·努恩 Bill Nunn
      杰克·贝茨 Jack Betts
      斯坦利·安德森 Stanley Anderson
      罗恩·帕金斯 Ron Perkins
      迈克尔·帕帕约翰 Michael Papajohn
      布鲁斯·坎贝尔 Bruce Campbell
      斯坦·李 Stan Lee
      伊丽莎白·班克斯 Elizabeth Banks
      奥克塔维亚·斯宾瑟 Octavia Spencer
      露西·劳莱丝 Lucy Lawless
      莎拉·拉米尔兹 Sara Ramirez
      宾尼·尤奎德兹 Benny Urquidez
      斯科特·斯皮格尔 Scott Spiegel
      吉姆·诺顿 Jim Norton
      杰西·巴托克 Jayce Bartok
      金锋 Feng Jin
      阿什丽·艾德纳 Ashley Edner
      罗伯特·科尔曼 Robert Kerman
      彼得·阿佩尔 Peter Appel
      杰西·海曼 Jesse Heiman
      席尔瓦·克莱吉安 Sylva Kelegian
      泰德·雷米 Ted Raimi
      玛西·格雷 Macy Gray
      迈克·沃特福德 Myk Watford
      Tammi Sutton Tammi Sutton
      Lou Torres Lou Torres
      Jillian Clare Jillian Clare
      Jacob Chambers Jacob Chambers
      兰迪·霍尔 Randy Hall
      菲利普·吴 Philip Ng
      Kristen Marie Holly Kristen Marie Holly
      克劳迪娅·卡茨 Claudia Katz
      Derek C. Wallace Derek C. Wallace
      阿杰·梅赫塔 Ajay Mehta
      Lance Polland Lance Polland
      Sean Valla Sean Valla
      Jophery C. Brown Jophery C. Brown
      Alex Black Alex Black
      Andy Bray Andy Bray
      布拉德·格伦伯格 Brad Grunberg
      Jill Sayre Jill Sayre
      兰迪·萨瓦格 Randy Savage
      杰森·帕德格特 Jason Padgett
      Joy Michelle Moore Joy Michelle Moore
      David Holcomb David Holcomb
      Al Goto Al Goto
      Shane Habberstad Shane Habberstad
      比尔·卡尔弗特 Bill Calvert
      洛伦·简斯 Loren Janes
      Andray Johnson Andray Johnson
      拉里·约书亚 Larry Joshua
      Juan M. Guerra Juan M. Guerra
      Ari Averbach Ari Averbach
       Patrick Coleman Duncan
       Cody Cundiff
       Richard Stephens
       Marcus Gorman
      瑞克·艾弗里 Rick Avery
      Gary Otto Gary Otto
      Margaret Baker Margaret Baker
      John Wojnowski III John Wojnowski III
      Erica D. Porter Erica D. Porter
      Camille Bennett Camille Bennett
      Leroy Patterson Leroy Patterson
      Peter Genovese Peter Genovese
      萨默·雷石东 Sumner Redstone
      Justin Neill Justin Neill
      R.C. Everbeck R.C. Everbeck



◎简  介

  彼得 帕克(托比?马奎尔 Tobey Maguire 饰)只是美国一个平凡的高中生,当一次他被蜘蛛博物馆偷跑出来的变种蜘蛛咬了一口之后,彼得的生活彻底改变了。他变得和蜘蛛一样,拥有各种蜘蛛特有的超能力:从手指喷出粘力极强的蜘蛛丝、飞檐走壁等等。彼得兴奋异常,开始利用自己的超能力去赚钱。但当他最爱的叔叔被自己放走的罪犯杀死后,彼得发誓要用自己的超能力去打击犯罪。

  彼得好友哈利的父亲诺曼(威廉?达福 Willem Dafoe 饰)是一家生物科技公司的老板,因自己公司生产的飞行器没得到军方首脑赏识而苦恼不堪。一次意外诺曼吸入神经毒气而具有了超能力,引发了自身邪恶的本性,骑着自己研发的飞行器去到处破坏、杀人。彼得化身的蜘蛛侠开始出击了!

◎获奖情况

  第75届奥斯卡金像奖 ?(2003)
  最佳视觉效果(提名) 约翰·戴克斯特拉?/?安东尼·拉默里纳拉?/?约翰·弗雷泽?/?斯科特·斯多克迪克
  最佳音响(提名) 格雷格·P·罗素?/?凯文·奥康奈尔?/?爱德·诺维克

  第56届英国电影学院奖 ?(2003)
  电影奖最佳特殊视觉效果(提名) 约翰·戴克斯特拉?/?安东尼·拉默里纳拉?/?约翰·弗雷泽?/?斯科特·斯多克迪克
Video
ID : 1
Format : HEVC
Format/Info : High Efficiency Video Coding
Format profile : Main 10@L5@High
HDR format : Dolby Vision, Version 1.0, dvhe.05.06, BL+RPU
Codec ID : dvhe
Codec ID/Info : High Efficiency Video Coding with Dolby Vision
Duration : 2 h 1 min
Bit rate : 24.5 Mb/s
Width : 3 840 pixels
Height : 2 080 pixels
Original height : 2 076 pixels
Display aspect ratio : 1.85:1
Original display aspect ratio : 1.85:1
Frame rate mode : Constant
Frame rate : 23.976 (24000/1001/189150) FPS
Color space : YUV
Chroma subsampling : 4:2:0
Bit depth : 10 bits
Bits/(Pixel*Frame) : 0.128
Stream size : 20.8 GiB (97%)
Default : Yes
Alternate group : 1
Encoded date : UTC 2021-09-04 04:16:57
Tagged date : UTC 2021-09-04 04:22:56
Codec configuration box : hvcC+dvcC

Audio
ID : 2
Format : E-AC-3 JOC
Format/Info : Enhanced AC-3 with Joint Object Coding
Commercial name : Dolby Digital Plus with Dolby Atmos
Codec ID : ec-3
Duration : 2 h 1 min
Bit rate mode : Constant
Bit rate : 768 kb/s
Maximum bit rate : 811 kb/s
Channel(s) : 6 channels
Channel layout : L R C LFE Ls Rs
Sampling rate : 48.0 kHz
Frame rate : 31.250 FPS (1536 SPF)
Compression mode : Lossy
Stream size : 666 MiB (3%)
Title : English (US)
Language : English
Service kind : Complete Main
Encoded date : UTC 2021-09-04 04:14:48
Tagged date : UTC 2021-09-04 04:22:56
Complexity index : Not present / 16
Number of dynamic objects : 15
Bed channel count : 1 channel
Bed channel configuration : LFE

Text #1
ID : 3
Format : Timed Text
Codec ID : tx3g
Duration : 1 h 55 min
Bit rate mode : Variable
Bit rate : 68 b/s
Stream size : 57.1 KiB (0%)
Title : English
Language : English
Forced : No
Encoded date : UTC 2021-09-04 04:22:55
Tagged date : UTC 2021-09-04 04:22:56

Text #2
ID : 4
Format : Timed Text
Codec ID : tx3g
Duration : 1 h 55 min
Bit rate mode : Variable
Bit rate : 73 b/s
Stream size : 61.9 KiB (0%)
Title : English [CC]
Language : English
Forced : No
Encoded date : UTC 2021-09-04 04:22:55
Tagged date : UTC 2021-09-04 04:22:56

Menu
00:00:00.000 : Chapter 1
00:06:29.000 : Chapter 2
00:14:56.000 : Chapter 3
00:21:54.000 : Chapter 4
00:28:37.000 : Chapter 5
00:36:37.000 : Chapter 6
00:44:39.000 : Chapter 7
00:51:56.000 : Chapter 8
00:59:16.000 : Chapter 9
01:05:57.000 : Chapter 10
01:12:11.000 : Chapter 11
01:19:35.000 : Chapter 12
01:25:09.000 : Chapter 13
01:32:25.000 : Chapter 14
01:39:36.000 : Chapter 15
01:49:54.000 : Chapter 16

迅雷下载资源速度为零,资源敏感或被和谐时,推荐使用qBittorrent等无限速下载软件,有条件的推荐115更好的下载软件!


下载地址

游客,如果您要查看本帖隐藏内容请回复

游客,如果您要查看本帖隐藏内容请回复



.




上一篇:九天 / Nine Days (2020) 4K高清版下载
下一篇:蜘蛛侠2 / Spider-Man 2 (2004) 4K高清版下载
回复

使用道具 举报

1

主题

1338

帖子

3850

积分

4K家园VIP

Rank: 9Rank: 9Rank: 9

积分
3850
发表于 2021-11-1 10:16:26 | 显示全部楼层
回个帖子,下班咯~
回复 支持 反对

使用道具 举报

0

主题

6676

帖子

1万

积分

4K家园VIP

Rank: 9Rank: 9Rank: 9

积分
15538
发表于 2021-11-1 10:52:44 | 显示全部楼层
太好啦&萬分感謝版主的無私發佈分享%
回复 支持 反对

使用道具 举报

0

主题

4

帖子

21

积分

新手上路

Rank: 1

积分
21
发表于 2021-11-1 12:53:58 | 显示全部楼层
感谢大神分享
回复 支持 反对

使用道具 举报

0

主题

664

帖子

2317

积分

注册会员

Rank: 2

积分
2317
发表于 2021-11-1 21:18:17 | 显示全部楼层

感谢楼主分享好片
回复 支持 反对

使用道具 举报

0

主题

664

帖子

2317

积分

注册会员

Rank: 2

积分
2317
发表于 2021-11-2 23:04:48 | 显示全部楼层
多谢楼主分享!!!
回复 支持 反对

使用道具 举报

5

主题

1592

帖子

4396

积分

中级会员

Rank: 4

积分
4396
发表于 2021-11-4 00:47:02 | 显示全部楼层
啥玩应呀
回复 支持 反对

使用道具 举报

2

主题

1310

帖子

3796

积分

4K家园VIP

Rank: 9Rank: 9Rank: 9

积分
3796
发表于 2021-11-4 10:43:53 | 显示全部楼层
有4K版卡,下个看下
回复 支持 反对

使用道具 举报

0

主题

4

帖子

15

积分

新手上路

Rank: 1

积分
15
发表于 2021-11-4 14:50:44 来自手机 | 显示全部楼层
D感谢楼主
回复

使用道具 举报

66

主题

1507

帖子

4335

积分

4K家园VIP

Rank: 9Rank: 9Rank: 9

积分
4335
发表于 2021-11-7 00:34:53 | 显示全部楼层
我只是看看啊,不说话
回复 支持 反对

使用道具 举报

您需要登录后才可以回帖 登录 | 立即注册

本版积分规则

精彩图文
Archiver|手机版|TAG|Sitemap|新帖|专题|联系我们:邮箱: 4kjia.com@gmail.com   

4k家园   ©2019