[国家地理] [4K国家地理] 云中的岛屿60fps (2019) [2160P/MKV/483MB]

[复制链接]

2609

主题

2943

帖子

2万

积分

超级版主

Rank: 8Rank: 8

积分
24513
 楼主| 发表于 2021-11-12 13:36:26 | 显示全部楼层 |阅读模式

ОСТРОВА В ОБЛАКАХ.mkv_20211102_111335.101.jpg ОСТРОВА В ОБЛАКАХ.mkv_20211102_111342.389.jpg ОСТРОВА В ОБЛАКАХ.mkv_20211102_111353.173.jpg ОСТРОВА В ОБЛАКАХ.mkv_20211102_111359.077.jpg ОСТРОВА В ОБЛАКАХ.mkv_20211102_111408.189.jpg ОСТРОВА В ОБЛАКАХ.mkv_20211102_111435.181.jpg

影片信息
片名:云端的岛屿
上映时间: 2019
国家:丹麦
持续时间: 00:04 : 49
类型: 物种
导演:乔纳森·贝斯勒
演员: .

影片简介:

          法罗群岛是一个自治区,隶属于丹麦王国。该群岛由位于冰岛和挪威之间的北大西洋的 18 个火山岛组成。

General
Complete name                  : E:\4K@电影 4K@MV\云中的岛屿 (2019) WEBRip 2160p
Format                         : Matroska
Format version                 : Version 4
File size                      : 483 MiB
Duration                       : 4 min 49 s
Overall bit rate               : 14.0 Mb/s
Encoded date                   : UTC 2021-10-16 16:58:47
Writing application            : mkvmerge v62.0.0 ('Apollo') 64-bit
Writing library                : libebml v1.4.2 + libmatroska v1.6.4 / IDMmkvlib0.1
Language                       : und

Video
ID                             : 1
Format                         : VP9
Codec ID                       : V_VP9
Duration                       : 4 min 49 s
Bit rate                       : 13.8 Mb/s
Width                          : 3 840 pixels
Height                         : 2 160 pixels
Display aspect ratio           : 16:9
Frame rate mode                : Variable
Frame rate                     : 59.940 (59940/1000) FPS
Bits/(Pixel*Frame)             : 0.028
Stream size                    : 478 MiB (99%)
Default                        : Yes
Forced                         : No

Audio
ID                             : 2
Format                         : Opus
Codec ID                       : A_OPUS
Duration                       : 4 min 49 s
Bit rate                       : 138 kb/s
Channel(s)                     : 2 channels
Channel layout                 : L R
Sampling rate                  : 48.0 kHz
Frame rate                     : 50.000 FPS (960 SPF)
Bit depth                      : 16 bits
Compression mode               : Lossy
Stream size                    : 4.77 MiB (1%)
Default                        : Yes
Forced                         : No
下载地址:

游客,如果您要查看本帖隐藏内容请回复






上一篇:[4K国家地理] Kamyanets-Podilsky (2021) [2160P/MKV/310MB]
下一篇:[4K国家地理] 自然景点-夏蒙尼 (2021) [2160P/MKV/239MB]
回复

使用道具 举报

1

主题

1119

帖子

3377

积分

4K家园VIP

Rank: 9Rank: 9Rank: 9

积分
3377
发表于 2021-11-12 13:36:31 | 显示全部楼层
LZ是天才,坚定完毕
回复 支持 反对

使用道具 举报

37

主题

1489

帖子

4245

积分

4K家园VIP

Rank: 9Rank: 9Rank: 9

积分
4245
发表于 2021-11-12 13:36:31 来自手机 | 显示全部楼层
打酱油的人拉,回复下赚取积分
回复 支持 反对

使用道具 举报

57

主题

1493

帖子

4335

积分

4K家园VIP

Rank: 9Rank: 9Rank: 9

积分
4335
发表于 2021-11-12 13:47:55 | 显示全部楼层
锄禾日当午,发帖真辛苦。谁知坛中餐,帖帖皆辛苦!
回复 支持 反对

使用道具 举报

41

主题

1490

帖子

4302

积分

4K家园VIP

Rank: 9Rank: 9Rank: 9

积分
4302
发表于 2021-11-12 13:55:32 | 显示全部楼层
在撸一遍。。。
回复 支持 反对

使用道具 举报

0

主题

6676

帖子

1万

积分

4K家园VIP

Rank: 9Rank: 9Rank: 9

积分
15538
发表于 2021-11-12 14:45:49 | 显示全部楼层
丹麥雲端的島嶼4k
回复 支持 反对

使用道具 举报

5

主题

1452

帖子

4200

积分

4K家园VIP

Rank: 9Rank: 9Rank: 9

积分
4200
发表于 2021-11-12 15:02:46 | 显示全部楼层
占坑编辑ing
回复 支持 反对

使用道具 举报

0

主题

2

帖子

13

积分

新手上路

Rank: 1

积分
13
发表于 2021-11-14 10:46:01 | 显示全部楼层
感谢分享11
回复 支持 反对

使用道具 举报

0

主题

3

帖子

16

积分

新手上路

Rank: 1

积分
16
发表于 2021-11-14 19:22:09 | 显示全部楼层
楼主这资源不错,我收藏了
回复 支持 反对

使用道具 举报

0

主题

2

帖子

9

积分

新手上路

Rank: 1

积分
9
发表于 2021-11-14 20:34:49 来自手机 | 显示全部楼层
锄禾日当午,发帖真辛苦
回复 支持 反对

使用道具 举报

您需要登录后才可以回帖 登录 | 立即注册

本版积分规则

精彩图文
Archiver|手机版|TAG|Sitemap|新帖|专题|联系我们:邮箱: 4kjia.com@gmail.com   

4k家园   ©2019