[国家地理] [4K国家地理] 圣托港 (2021) [2160P/MKV/344MB]

[复制链接]

2652

主题

2986

帖子

2万

积分

超级版主

Rank: 8Rank: 8

积分
24945
 楼主| 发表于 2021-11-27 15:23:36 | 显示全部楼层 |阅读模式
本帖最后由 叽里呱啦 于 2021-11-16 11:52 编辑

圣港 (2021) WEBRip 2160p.mkv_20211102_121459.019.jpg 圣港 (2021) WEBRip 2160p.mkv_20211102_121507.315.jpg 圣港 (2021) WEBRip 2160p.mkv_20211102_121526.891.jpg 圣港 (2021) WEBRip 2160p.mkv_20211102_121536.939.jpg 圣港 (2021) WEBRip 2160p.mkv_20211102_121550.531.jpg 圣港 (2021) WEBRip 2160p.mkv_20211102_121556.467.jpg

影片信息
片名: Porto Santo
上映时间: 2021
国家:葡萄牙
工作室:钉住你的脚步
持续时间: 00:05 : 52
类型: 物种


关于电影:

        圣托港是马德拉群岛中的一个葡萄牙岛屿。位于大西洋马德拉岛东北 43 公里处。

General
Unique ID                      : 215095113112061726914021059512854138428 (0xA1D1CFDA360DFE7F5FE940E608984E3C)
Complete name                  : E:\4K@电影 4K@MV\国家地理\圣港 (2021) WEBRip 2160p.mkv
Format                         : Matroska
Format version                 : Version 4
File size                      : 345 MiB
Duration                       : 2 min 52 s
Overall bit rate               : 16.7 Mb/s
Encoded date                   : UTC 2021-10-25 18:50:01
Writing application            : mkvmerge v62.0.0 ('Apollo') 64-bit
Writing library                : libebml v1.4.2 + libmatroska v1.6.4 / IDMmkvlib0.1
Language                       : und

Video
ID                             : 1
Format                         : VP9
Codec ID                       : V_VP9
Duration                       : 2 min 52 s
Bit rate                       : 16.6 Mb/s
Width                          : 3 840 pixels
Height                         : 2 160 pixels
Display aspect ratio           : 16:9
Frame rate mode                : Variable
Frame rate                     : 29.970 (29970/1000) FPS
Bits/(Pixel*Frame)             : 0.067
Stream size                    : 342 MiB (99%)
Default                        : Yes
Forced                         : No

Audio
ID                             : 2
Format                         : Opus
Codec ID                       : A_OPUS
Duration                       : 2 min 52 s
Bit rate                       : 138 kb/s
Channel(s)                     : 2 channels
Channel layout                 : L R
Sampling rate                  : 48.0 kHz
Frame rate                     : 50.000 FPS (960 SPF)
Bit depth                      : 16 bits
Compression mode               : Lossy
Stream size                    : 2.84 MiB (1%)
Default                        : Yes
Forced                         : No


下载地址:

****此区域为收费内容****    需支付 15 金币后可查看立即购买





.

上一篇:[4K国家地理] 圣玛丽亚 (2021) [2160P/MKV/280MB]
下一篇:[4K国家地理] 云端中的白云岩 (2021) [2160P/MKV/269MB]
回复

使用道具 举报

39

主题

1405

帖子

3977

积分

4K家园VIP

Rank: 9Rank: 9Rank: 9

积分
3977
发表于 2021-11-27 15:23:41 | 显示全部楼层
分享的不错,希望楼主继续分享
回复 支持 反对

使用道具 举报

0

主题

7239

帖子

1万

积分

4K家园VIP

Rank: 9Rank: 9Rank: 9

积分
16578
发表于 2021-11-27 19:08:05 | 显示全部楼层
葡萄牙马德拉群岛的圣托港4k
回复 支持 反对

使用道具 举报

4

主题

1624

帖子

4472

积分

4K家园VIP

Rank: 9Rank: 9Rank: 9

积分
4472
发表于 2021-11-28 12:22:23 来自手机 | 显示全部楼层
呵呵。。。
回复 支持 反对

使用道具 举报

2

主题

1347

帖子

4065

积分

4K家园VIP

Rank: 9Rank: 9Rank: 9

积分
4065
发表于 2021-11-29 01:20:36 | 显示全部楼层
4K家园资源不错,前排支持
回复 支持 反对

使用道具 举报

1

主题

1303

帖子

3731

积分

4K家园VIP

Rank: 9Rank: 9Rank: 9

积分
3731
发表于 2021-11-29 12:09:11 | 显示全部楼层
正好需要啊
回复 支持 反对

使用道具 举报

4

主题

1380

帖子

3976

积分

中级会员

Rank: 4

积分
3976
发表于 2021-11-29 12:54:25 | 显示全部楼层
支持一下楼主发表的内容
回复 支持 反对

使用道具 举报

0

主题

5

帖子

18

积分

新手上路

Rank: 1

积分
18
发表于 2021-11-30 21:45:06 | 显示全部楼层

谢谢楼主!4K家园真好!
回复 支持 反对

使用道具 举报

您需要登录后才可以回帖 登录 | 立即注册

本版积分规则

精彩图文
Archiver|手机版|TAG|Sitemap|新帖|专题|联系我们:邮箱: 4kjia.com@gmail.com   

4k家园   ©2019