[国家地理] [4K国家地理] 云端中的白云岩 (2021) [2160P/MKV/269MB]

[复制链接]

2609

主题

2943

帖子

2万

积分

超级版主

Rank: 8Rank: 8

积分
24510
 楼主| 发表于 2021-11-19 15:15:26 | 显示全部楼层 |阅读模式
本帖最后由 叽里呱啦 于 2021-11-2 12:26 编辑

升起的白云岩 (2021) WEBRip 2160p.mkv_20211102_122100.067.jpg 升起的白云岩 (2021) WEBRip 2160p.mkv_20211102_122108.867.jpg 升起的白云岩 (2021) WEBRip 2160p.mkv_20211102_122115.427.jpg 升起的白云岩 (2021) WEBRip 2160p.mkv_20211102_122120.451.jpg 升起的白云岩 (2021) WEBRip 2160p.mkv_20211102_122126.434.jpg 升起的白云岩 (2021) WEBRip 2160p.mkv_20211102_122131.290.jpg

电影信息
标题:云端中的白云岩
上映时间: 2021
国家:意大利
持续时间: 00 : 03 : 56
类型: 物种
导演: Francesco Dall'Olmo

关于电影:

       我的第一部延时摄影电影,展示了在白云岩中可以看到的一些美丽景色。
General
Unique ID                      : 214758919287659940132294509637351290158 (0xA191103793A8C77448147D097B50B52E)
Complete name                  : E:\4K@电影 4K@MV\国家地理\云端中的白云岩 (2021) WEBRip 2160p.mkv
Format                         : Matroska
Format version                 : Version 4
File size                      : 269 MiB
Duration                       : 3 min 56 s
Overall bit rate               : 9 541 kb/s
Encoded date                   : UTC 2021-10-25 17:05:07
Writing application            : mkvmerge v62.0.0 ('Apollo') 64-bit
Writing library                : libebml v1.4.2 + libmatroska v1.6.4 / IDMmkvlib0.1
Language                       : und

Video
ID                             : 1
Format                         : VP9
Codec ID                       : V_VP9
Duration                       : 3 min 56 s
Bit rate                       : 9 408 kb/s
Width                          : 3 840 pixels
Height                         : 2 160 pixels
Display aspect ratio           : 16:9
Frame rate mode                : Constant
Frame rate                     : 24.000 FPS
Bits/(Pixel*Frame)             : 0.047
Stream size                    : 265 MiB (99%)
Default                        : Yes
Forced                         : No

Audio
ID                             : 2
Format                         : Opus
Codec ID                       : A_OPUS
Duration                       : 3 min 56 s
Bit rate                       : 133 kb/s
Channel(s)                     : 2 channels
Channel layout                 : L R
Sampling rate                  : 48.0 kHz
Frame rate                     : 50.000 FPS (960 SPF)
Bit depth                      : 16 bits
Compression mode               : Lossy
Stream size                    : 3.74 MiB (1%)
Default                        : Yes
Forced                         : No

下载地址:

****此区域为收费内容****    需支付 15 金币后可查看立即购买





.

上一篇:[4K国家地理] 圣托港 (2021) [2160P/MKV/344MB]
下一篇:[4K国家地理] 瑞士秀丽风景 (2021) [2160P/MKV/379MB]
回复

使用道具 举报

11

主题

1217

帖子

3633

积分

4K家园VIP

Rank: 9Rank: 9Rank: 9

积分
3633
发表于 2021-11-19 15:15:30 | 显示全部楼层
为毛老子总也抢不到沙发?!!
回复 支持 反对

使用道具 举报

0

主题

6676

帖子

1万

积分

4K家园VIP

Rank: 9Rank: 9Rank: 9

积分
15538
发表于 2021-11-19 17:10:08 | 显示全部楼层
太好啦&萬分感謝版主的無私發佈分享%
回复 支持 反对

使用道具 举报

0

主题

1

帖子

6

积分

新手上路

Rank: 1

积分
6
发表于 2021-11-19 22:15:05 | 显示全部楼层
太棒了太棒了太棒了太棒了太棒了
回复 支持 反对

使用道具 举报

0

主题

1568

帖子

4284

积分

4K家园VIP

Rank: 9Rank: 9Rank: 9

积分
4284
发表于 2021-11-20 11:40:42 | 显示全部楼层
1v1飘过
回复 支持 反对

使用道具 举报

1

主题

1267

帖子

3815

积分

4K家园VIP

Rank: 9Rank: 9Rank: 9

积分
3815
发表于 2021-11-20 13:54:07 | 显示全部楼层
支持楼主,用户楼主,楼主英明呀!!!
回复 支持 反对

使用道具 举报

3

主题

1296

帖子

3906

积分

4K家园VIP

Rank: 9Rank: 9Rank: 9

积分
3906
发表于 2021-11-20 15:48:45 | 显示全部楼层
楼主这资源不错,我收藏了
回复 支持 反对

使用道具 举报

0

主题

3

帖子

16

积分

新手上路

Rank: 1

积分
16
发表于 2021-11-20 15:52:37 | 显示全部楼层
时空裂缝顺丰顺丰报考老师发顺丰 FDN A;N
回复 支持 反对

使用道具 举报

0

主题

1292

帖子

3888

积分

4K家园VIP

Rank: 9Rank: 9Rank: 9

积分
3888
发表于 2021-11-20 16:04:47 来自手机 | 显示全部楼层
前排支持下了哦~
回复 支持 反对

使用道具 举报

您需要登录后才可以回帖 登录 | 立即注册

本版积分规则

精彩图文
Archiver|手机版|TAG|Sitemap|新帖|专题|联系我们:邮箱: 4kjia.com@gmail.com   

4k家园   ©2019