[国家地理] [4K国家地理] 伦敦超延时拍影 [2160P/MKV/243MB]

[复制链接]

2652

主题

2986

帖子

2万

积分

超级版主

Rank: 8Rank: 8

积分
24945
 楼主| 发表于 2021-11-29 10:31:08 | 显示全部楼层 |阅读模式
伦敦 (2021) WEBRip 2160p.mkv_20211102_123925.634.jpg 伦敦 (2021) WEBRip 2160p.mkv_20211102_123936.058.jpg 伦敦 (2021) WEBRip 2160p.mkv_20211102_123945.594.jpg 伦敦 (2021) WEBRip 2160p.mkv_20211102_123952.290.jpg 伦敦 (2021) WEBRip 2160p.mkv_20211102_124013.786.jpg 伦敦 (2021) WEBRip 2160p.mkv_20211102_124032.378.jpg

影片信息
片名:伦敦
上映年份: 2021
国家:英国
时长: 00 : 02 : 35
类型: 物种
导演: Mattia Bicchi

影片简介:

       9 月我去伦敦 10 天,拍摄了全城的延时摄影和超延时摄影!
General
Unique ID                      : 80015254593605492780773037066722904421 (0x3C3260A2B9250D91DFAE7874156A8965)
Complete name                  : E:\4K@电影 4K@MV\国家地理\伦敦 (2021) WEBRip 2160p.mkv
Format                         : Matroska
Format version                 : Version 4
File size                      : 243 MiB
Duration                       : 2 min 35 s
Overall bit rate               : 13.2 Mb/s
Encoded date                   : UTC 2021-10-25 17:48:06
Writing application            : mkvmerge v62.0.0 ('Apollo') 64-bit
Writing library                : libebml v1.4.2 + libmatroska v1.6.4 / IDMmkvlib0.1
Language                       : und

Video
ID                             : 1
Format                         : VP9
Codec ID                       : V_VP9
Duration                       : 2 min 34 s
Bit rate                       : 13.0 Mb/s
Width                          : 3 840 pixels
Height                         : 1 920 pixels
Display aspect ratio           : 2.000
Frame rate mode                : Variable
Frame rate                     : 30.000 FPS
Bits/(Pixel*Frame)             : 0.059
Stream size                    : 241 MiB (99%)
Default                        : Yes
Forced                         : No

Audio
ID                             : 2
Format                         : Opus
Codec ID                       : A_OPUS
Duration                       : 2 min 35 s
Bit rate                       : 134 kb/s
Channel(s)                     : 2 channels
Channel layout                 : L R
Sampling rate                  : 48.0 kHz
Frame rate                     : 50.000 FPS (960 SPF)
Bit depth                      : 16 bits
Compression mode               : Lossy
Stream size                    : 2.48 MiB (1%)
Default                        : Yes
Forced                         : No


下载地址:


****此区域为收费内容****    需支付 15 金币后可查看立即购买




.

上一篇:[4K国家地理] 瑞士秀丽风景 (2021) [2160P/MKV/379MB]
下一篇:[4K国家地理] 寒冷的拉普兰 (2021) [2160P/MKV/333MB]
回复

使用道具 举报

66

主题

1511

帖子

4347

积分

4K家园VIP

Rank: 9Rank: 9Rank: 9

积分
4347
发表于 2021-11-29 10:31:12 来自手机 | 显示全部楼层
我只是路过,不发表意见
回复 支持 反对

使用道具 举报

0

主题

7237

帖子

1万

积分

4K家园VIP

Rank: 9Rank: 9Rank: 9

积分
16569
发表于 2021-11-29 12:34:18 | 显示全部楼层
倫敦超延時拍影4k
回复 支持 反对

使用道具 举报

0

主题

5

帖子

21

积分

新手上路

Rank: 1

积分
21
发表于 2021-11-30 00:02:06 | 显示全部楼层
足不出户,看遍世界
回复 支持 反对

使用道具 举报

41

主题

1496

帖子

4320

积分

4K家园VIP

Rank: 9Rank: 9Rank: 9

积分
4320
发表于 2021-12-6 18:00:38 | 显示全部楼层
4K家园资源不错,前排支持
回复 支持 反对

使用道具 举报

46

主题

1405

帖子

4043

积分

4K家园VIP

Rank: 9Rank: 9Rank: 9

积分
4043
发表于 2021-12-7 20:43:35 | 显示全部楼层
路过 帮顶 嘿嘿
回复 支持 反对

使用道具 举报

3

主题

1248

帖子

3762

积分

4K家园VIP

Rank: 9Rank: 9Rank: 9

积分
3762
发表于 2021-12-12 06:52:59 来自手机 | 显示全部楼层
众里寻他千百度,蓦然回首在这里!
回复 支持 反对

使用道具 举报

0

主题

5

帖子

18

积分

新手上路

Rank: 1

积分
18
发表于 2021-12-12 17:29:58 | 显示全部楼层

0

主题       
6756

帖子       
1万

积分

Rank: 9Rank: 9Rank: 9

积分15681
发消息       
板凳
发表于 2021-11-29 12:34:18 | 只看该作者
倫敦超延時拍影4k
回复 支持 反对

使用道具 举报

0

主题

5

帖子

18

积分

新手上路

Rank: 1

积分
18
发表于 2021-12-12 17:30:39 | 显示全部楼层
NIHAO 只看该作者
倫敦超延時拍影4k
回复 支持 反对

使用道具 举报

2

主题

1342

帖子

4048

积分

4K家园VIP

Rank: 9Rank: 9Rank: 9

积分
4048
发表于 2021-12-15 05:26:31 来自手机 | 显示全部楼层
没人回帖。。。我来个吧
回复 支持 反对

使用道具 举报

您需要登录后才可以回帖 登录 | 立即注册

本版积分规则

精彩图文
Archiver|手机版|TAG|Sitemap|新帖|专题|联系我们:邮箱: 4kjia.com@gmail.com   

4k家园   ©2019