[4K电影] 危险境地 / Dangerous (2021) 4K高清版下载

[复制链接]

1134

主题

1211

帖子

9841

积分

超级版主

Rank: 8Rank: 8

积分
9841
 楼主| 发表于 2021-11-5 15:46:33 | 显示全部楼层 |阅读模式
本帖最后由 最爱4K哟 于 2021-11-5 16:19 编辑

QQ图片20211105160202_副本.png

◎译  名 危险境地
◎片  名 Dangerous
◎年  代 2021
◎产  地 美国
◎类  别 剧情 / 惊悚 / 犯罪
◎语  言 英语
◎上映日期 2021-11-05(美国)
◎IMDb评分  5.3/10 from 22 users
◎IMDb链接  https://www.imdb.com/title/tt3876910/
◎豆瓣评分 0/10 from 0 users
◎豆瓣链接 https://movie.douban.com/subject/3001114/
◎片  长 99分钟
◎导  演 大卫·海克尔
◎编  剧 克里斯托弗·博雷利 / 马修·萨德
◎主  演 斯科特·伊斯特伍德
                   梅尔·吉布森
                   泰瑞斯·吉布森
                   法米克·詹森
                   凯文·杜兰


◎简  介


         伊斯特伍德饰演一个改过自新的反社会分子,他在兄弟死后前往一个偏远地区,不料被一群致命的雇佣兵围困。在谋生的过程中,他发现这群人和兄弟的死有关,开始了无情残酷的复仇。
Video
ID : 1
Format : HEVC
Format/Info : High Efficiency Video Coding
Format profile : Main 10@L5@High
Codec ID : V_MPEGH/ISO/HEVC
Duration : 1 h 39 min
Bit rate : 12.0 Mb/s
Width : 3 832 pixels
Height : 1 596 pixels
Display aspect ratio : 2.40:1
Frame rate mode : Constant
Frame rate : 23.976 FPS
Color space : YUV
Chroma subsampling : 4:2:0
Bit depth : 10 bits
Bits/(Pixel*Frame) : 0.082
Stream size : 8.33 GiB (97%)
Language : English
Default : Yes
Forced : No
Color range : Limited
Color primaries : BT.709
Transfer characteristics : BT.709
Matrix coefficients : BT.709

Audio
ID : 2
Format : AC-3
Format/Info : Audio Coding 3
Commercial name : Dolby Digital
Codec ID : A_AC3
Duration : 1 h 39 min
Bit rate mode : Constant
Bit rate : 384 kb/s
Channel(s) : 6 channels
Channel layout : L R C LFE Ls Rs
Sampling rate : 48.0 kHz
Frame rate : 31.250 FPS (1536 SPF)
Compression mode : Lossy
Stream size : 272 MiB (3%)
Title : English
Language : English
Service kind : Complete Main
Default : Yes
Forced : No

Text
ID : 3
Format : UTF-8
Codec ID : S_TEXT/UTF8
Codec ID/Info : UTF-8 Plain Text
Duration : 1 h 31 min
Bit rate : 46 b/s
Count of elements : 1092
Stream size : 31.3 KiB (0%)
Language : English
Default : Yes
Forced : No

迅雷下载资源速度为零,资源敏感或被和谐时,推荐使用qBittorrent等无限速下载软件,有条件的推荐115更好的下载软件!

下载地址

游客,如果您要查看本帖隐藏内容请回复




.



上一篇:芬奇(内封简繁中字) / Finch (2021) 4K高清版下载
下一篇:一击(外挂中文字幕) / One Shot (2021) 4K高清版下载
回复

使用道具 举报

1

主题

1369

帖子

3943

积分

4K家园VIP

Rank: 9Rank: 9Rank: 9

积分
3943
发表于 2021-11-5 15:46:38 | 显示全部楼层
多谢楼主分享
回复 支持 反对

使用道具 举报

0

主题

6718

帖子

1万

积分

4K家园VIP

Rank: 9Rank: 9Rank: 9

积分
15606
发表于 2021-11-5 16:09:48 | 显示全部楼层
太好啦&萬分感謝版主的無私發佈分享%
回复 支持 反对

使用道具 举报

48

主题

1493

帖子

4281

积分

4K家园VIP

Rank: 9Rank: 9Rank: 9

积分
4281
发表于 2021-11-5 17:03:37 | 显示全部楼层
正好需要啊
回复 支持 反对

使用道具 举报

1

主题

1281

帖子

3857

积分

4K家园VIP

Rank: 9Rank: 9Rank: 9

积分
3857
发表于 2021-11-5 18:07:11 | 显示全部楼层
介是神马?!!
回复 支持 反对

使用道具 举报

56

主题

1496

帖子

4344

积分

4K家园VIP

Rank: 9Rank: 9Rank: 9

积分
4344
发表于 2021-11-5 18:59:42 | 显示全部楼层
纯粹路过,没任何兴趣,仅仅是看在老用户份上回复一下
回复 支持 反对

使用道具 举报

2

主题

1305

帖子

3931

积分

4K家园VIP

Rank: 9Rank: 9Rank: 9

积分
3931
发表于 2021-11-5 20:07:30 | 显示全部楼层
我了个去,顶了
回复 支持 反对

使用道具 举报

1

主题

26

帖子

190

积分

新手上路

Rank: 1

积分
190
发表于 2021-11-5 21:33:27 | 显示全部楼层
谢谢分享
回复

使用道具 举报

0

主题

45

帖子

75

积分

新手上路

Rank: 1

积分
75
发表于 2021-11-6 09:00:20 | 显示全部楼层
楼主这资源不错,收藏了,谢谢
回复 支持 反对

使用道具 举报

0

主题

2

帖子

25

积分

新手上路

Rank: 1

积分
25
发表于 2021-11-6 11:33:51 | 显示全部楼层
谢谢,分析6666
回复 支持 反对

使用道具 举报

您需要登录后才可以回帖 登录 | 立即注册

本版积分规则

精彩图文
Archiver|手机版|TAG|Sitemap|新帖|专题|联系我们:邮箱: 4kjia.com@gmail.com   

4k家园   ©2019