[4K电影] 验收测试 / The Beta Test (2021) 4K高清版下载

[复制链接]

1134

主题

1211

帖子

9838

积分

超级版主

Rank: 8Rank: 8

积分
9838
 楼主| 发表于 2021-11-5 15:58:00 | 显示全部楼层 |阅读模式
本帖最后由 最爱4K哟 于 2021-11-5 16:17 编辑

QQ图片20211105160453_副本.png
◎译  名 验收测试/贝塔测试
◎片  名 The Beta Test
◎年  代 2021
◎产  地 美国
◎类  别 悬疑 / 惊悚 / 恐怖 / 犯罪
◎语  言 英语 / 瑞典语
◎上映日期 2021-06-11(翠贝卡电影节) / 2021-11-05(美国)
◎IMDb评分  6.8/10 from 214 users
◎IMDb链接  https://www.imdb.com/title/tt11738830/
◎豆瓣评分 /10 from 0 users
◎豆瓣链接 https://movie.douban.com/subject/34967891/
◎片  长 93分钟
◎导  演 吉姆·卡明斯 Jim Cummings / PJ·麦凯布 PJ McCabe
◎编  剧 吉姆·卡明斯 Jim Cummings / PJ·麦凯布 PJ McCabe
◎主  演 吉姆·卡明斯 Jim Cummings
       克里斯蒂安·希尔伯格 Christian Hillborg
       奥利维亚·格雷斯·阿普尔盖特 Olivia Grace Applegate
       基斯·鲍威尔 Keith Powell
       维吉尼亚·纽科姆 Virginia Newcomb
       杰西·巴尔 Jessie Barr


◎简  介

  一位已婚的好莱坞特工收到一封关于匿名性接触的神秘信件,并陷入了一个充满谎言、不忠和数字数据的险恶世界。

◎获奖情况

  第71届柏林国际电影节 ?(2021)
  遇见单元最佳影片(提名) 吉姆·卡明斯?/?PJ·麦凯布

Video
ID : 1
Format : HEVC
Format/Info : High Efficiency Video Coding
Format profile : Main 10@L5@High
Codec ID : V_MPEGH/ISO/HEVC
Duration : 1 h 33 min
Bit rate : 12.0 Mb/s
Width : 3 832 pixels
Height : 1 664 pixels
Display aspect ratio : 2.35:1
Frame rate mode : Constant
Frame rate : 24.000 FPS
Color space : YUV
Chroma subsampling : 4:2:0
Bit depth : 10 bits
Bits/(Pixel*Frame) : 0.078
Stream size : 7.82 GiB (97%)
Default : Yes
Forced : No
Color range : Limited
Color primaries : BT.709
Transfer characteristics : BT.709
Matrix coefficients : BT.709

Audio
ID : 2
Format : AC-3
Format/Info : Audio Coding 3
Commercial name : Dolby Digital
Codec ID : A_AC3
Duration : 1 h 33 min
Bit rate mode : Constant
Bit rate : 384 kb/s
Channel(s) : 6 channels
Channel layout : L R C LFE Ls Rs
Sampling rate : 48.0 kHz
Frame rate : 31.250 FPS (1536 SPF)
Compression mode : Lossy
Stream size : 256 MiB (3%)
Title : English
Language : English
Service kind : Complete Main
Default : No
Forced : No

Text #1
ID : 3
Format : UTF-8
Codec ID : S_TEXT/UTF8
Codec ID/Info : UTF-8 Plain Text
Duration : 55 min 12 s
Bit rate : 3 b/s
Count of elements : 48
Stream size : 1.48 KiB (0%)
Title : English [Forced]
Language : English
Default : No
Forced : Yes

Text #2
ID : 4
Format : UTF-8
Codec ID : S_TEXT/UTF8
Codec ID/Info : UTF-8 Plain Text
Duration : 1 h 29 min
Bit rate : 72 b/s
Count of elements : 1500
Stream size : 47.9 KiB (0%)
Title : English [SDH]
Language : English
Default : No
Forced : No

迅雷下载资源速度为零,资源敏感或被和谐时,推荐使用qBittorrent等无限速下载软件,有条件的推荐115更好的下载软件!

下载地址

游客,如果您要查看本帖隐藏内容请回复










上一篇:一击(外挂中文字幕) / One Shot (2021) 4K高清版下载
下一篇:007:无暇赴死 / No Time to Die (2021) 4K高清版下载
回复

使用道具 举报

59

主题

1516

帖子

4344

积分

4K家园VIP

Rank: 9Rank: 9Rank: 9

积分
4344
发表于 2021-11-5 15:58:05 | 显示全部楼层
体验下4K版的
回复 支持 反对

使用道具 举报

0

主题

6718

帖子

1万

积分

4K家园VIP

Rank: 9Rank: 9Rank: 9

积分
15606
发表于 2021-11-5 16:11:32 | 显示全部楼层
太好啦&萬分感謝版主的無私發佈分享%
回复 支持 反对

使用道具 举报

0

主题

3

帖子

18

积分

新手上路

Rank: 1

积分
18
发表于 2021-11-5 16:47:09 | 显示全部楼层
已学习111234
回复 支持 反对

使用道具 举报

0

主题

3

帖子

16

积分

新手上路

Rank: 1

积分
16
发表于 2021-11-5 20:20:06 | 显示全部楼层
感谢分享
回复

使用道具 举报

0

主题

9

帖子

49

积分

新手上路

Rank: 1

积分
49
发表于 2021-11-5 20:35:47 | 显示全部楼层

感谢分享
回复

使用道具 举报

0

主题

4

帖子

19

积分

新手上路

Rank: 1

积分
19
发表于 2021-11-5 22:15:45 | 显示全部楼层
谢谢分享。。。。
回复

使用道具 举报

0

主题

19

帖子

163

积分

新手上路

Rank: 1

积分
163
QQ
发表于 2021-11-6 21:26:44 | 显示全部楼层
谢谢2,不错
回复

使用道具 举报

0

主题

2

帖子

13

积分

新手上路

Rank: 1

积分
13
发表于 2021-11-7 12:30:55 | 显示全部楼层
xihuan看看怎么样
回复 支持 反对

使用道具 举报

0

主题

207

帖子

1263

积分

注册会员

Rank: 2

积分
1263
发表于 2021-11-7 12:53:52 | 显示全部楼层
感謝版主的無私發佈
回复 支持 反对

使用道具 举报

您需要登录后才可以回帖 登录 | 立即注册

本版积分规则

精彩图文
Archiver|手机版|TAG|Sitemap|新帖|专题|联系我们:邮箱: 4kjia.com@gmail.com   

4k家园   ©2019