疯狂动画 / Animaniacs (2020) /第一、二季全 /4K高清下载

[复制链接]

52

主题

59

帖子

602

积分

版主

Rank: 7Rank: 7Rank: 7

积分
602
 楼主| 发表于 2021-11-6 10:43:49 | 显示全部楼层 |阅读模式

MV5BZjI1NjY0NTItMjM2Yy00NjBmLThkOGEtYzM1YzBhZjMwMjMzXkEyXkFqcGdeQXVyMTkxNjUyNQ@@._V1_.jpg

◎译  名 疯狂动画 / 狂欢三宝
◎片  名 Animaniacs
◎年  代 2020
◎产  地 美国
◎类  别 喜剧/动画
◎语  言 英语
◎上映日期 2020-11-20(美国)
◎IMDb评分  7.8/10 from 2563 users
◎IMDb链接  https://www.imdb.com/title/tt6951546/
◎豆瓣评分 /10 from 0 users
◎豆瓣链接 https://douban.com/subject/27185064/
◎片  长 20分钟
◎编  剧 乔丹·凡迪那 Jordan VanDina
◎主  演 莫里斯·拉马奇 Maurice LaMarche
       特蕾丝·麦克尼尔 Tress MacNeille
       泰瑞·克鲁斯 Terry Crews
       劳拉·穆尼 Laura Mooney
       崔·帕克 Trey Parker
       伯纳黛特·彼得斯 Bernadette Peters
       谢里·斯托纳 Sherri Stoner
       杰斯·哈梅尔 Jess Harnell
       罗伯·鲍森 Rob Paulsen
       克莉希·菲茨 Chrissie Fit
       朱莉·布朗 Julie Brown
       南茜·卡特莱特 Nancy Cartwright
       凯尔·米歇尔 Kel Mitchell
       威廉·赛莱耶 William Salyers




◎简  介


  他们回来了!华纳兄弟,雅科和瓦科,以及华纳姐妹多特,在他们遇到的每个人的生活中都有一段非常美好的时光。回到他们深爱的家华纳兄弟水塔后,兄弟姐妹们不失时机地在演播室里乱跑,把世界变成了他们的个人游乐场。加入雅科、瓦科和多特,粉丝们最喜欢的角色小指和大脑也回来继续他们对世界统治的追求。

General
Complete name                  : D:\Animaniacs.2020.S01E01.2160p.WEB.H265-GGWP.mkv
Format                         : Matroska
Format version                 : Version 4
File size                      : 1.61 GiB
Duration                       : 24 min 29 s
Overall bit rate               : 9 405 kb/s
Writing application            : mkvmerge v49.0.0 ('Sick Of Losing Soulmates') 64-bit
Writing library                : libebml v1.4.0 + libmatroska v1.6.1
IsTruncated                    : Yes

Video
ID                             : 1
Format                         : HEVC
Format/Info                    : High Efficiency Video Coding
Format profile                 : Main 10@L5.1@Main
Codec ID                       : V_MPEGH/ISO/HEVC
Duration                       : 24 min 29 s
Bit rate                       : 8 962 kb/s
Width                          : 3 840 pixels
Height                         : 2 160 pixels
Display aspect ratio           : 16:9
Frame rate mode                : Constant
Frame rate                     : 23.976 (24000/1001) FPS
Color space                    : YUV
Chroma subsampling             : 4:2:0
Bit depth                      : 10 bits
Bits/(Pixel*Frame)             : 0.045
Stream size                    : 1.53 GiB (95%)
Default                        : Yes
Forced                         : No

Audio
ID                             : 2
Format                         : E-AC-3
Format/Info                    : Enhanced AC-3
Commercial name                : Dolby Digital Plus
Codec ID                       : A_EAC3
Duration                       : 24 min 29 s
Bit rate mode                  : Constant
Bit rate                       : 256 kb/s
Channel(s)                     : 6 channels
Channel layout                 : L R C LFE Ls Rs
Sampling rate                  : 48.0 kHz
Frame rate                     : 31.250 FPS (1536 SPF)
Compression mode               : Lossy
Stream size                    : 44.9 MiB (3%)
Language                       : English
Service kind                   : Complete Main
Default                        : Yes
Forced                         : No

Text #1
ID                             : 3
Format                         : UTF-8
Codec ID                       : S_TEXT/UTF8
Codec ID/Info                  : UTF-8 Plain Text
Title                          : English
Language                       : English
Default                        : No
Forced                         : No

Text #2
ID                             : 4
Format                         : UTF-8
Codec ID                       : S_TEXT/UTF8
Codec ID/Info                  : UTF-8 Plain Text
Title                          : Spanish
Language                       : Spanish
Default                        : No
Forced                         : No

第一季全下载
游客,如果您要查看本帖隐藏内容请回复

第二季全下载
游客,如果您要查看本帖隐藏内容请回复





.

上一篇:[BBC纪录片] 求偶游戏 / The Mating Game (2021) / 5集全 /4K高清下载
下一篇:交错人生(内嵌简繁中字) (2021) / 第一季全10集/4K高清下载
回复

使用道具 举报

1

主题

1219

帖子

3673

积分

4K家园VIP

Rank: 9Rank: 9Rank: 9

积分
3673
发表于 2021-11-6 10:44:17 | 显示全部楼层
不错 支持下
回复 支持 反对

使用道具 举报

0

主题

6676

帖子

1万

积分

4K家园VIP

Rank: 9Rank: 9Rank: 9

积分
15538
发表于 2021-11-6 10:53:01 | 显示全部楼层
太好啦&萬分感謝版主的無私發佈分享%
回复 支持 反对

使用道具 举报

0

主题

143

帖子

2981

积分

注册会员

Rank: 2

积分
2981
发表于 2021-11-6 11:26:12 | 显示全部楼层
谢谢分享
回复

使用道具 举报

0

主题

1374

帖子

3942

积分

4K家园VIP

Rank: 9Rank: 9Rank: 9

积分
3942
发表于 2021-11-6 19:13:43 | 显示全部楼层
回复 支持 反对

使用道具 举报

2

主题

1358

帖子

3932

积分

4K家园VIP

Rank: 9Rank: 9Rank: 9

积分
3932
发表于 2021-11-6 23:09:21 | 显示全部楼层
回复 支持 反对

使用道具 举报

59

主题

1446

帖子

4192

积分

4K家园VIP

Rank: 9Rank: 9Rank: 9

积分
4192
发表于 2021-11-7 00:37:56 来自手机 | 显示全部楼层
发发呆,回回帖,工作结束~
回复 支持 反对

使用道具 举报

1

主题

1317

帖子

3963

积分

4K家园VIP

Rank: 9Rank: 9Rank: 9

积分
3963
发表于 2021-11-7 01:38:14 来自手机 | 显示全部楼层
有空一起交流一下
回复 支持 反对

使用道具 举报

0

主题

5

帖子

22

积分

新手上路

Rank: 1

积分
22
发表于 2021-11-7 13:32:57 | 显示全部楼层
可以下载吗
回复 支持 反对

使用道具 举报

0

主题

6676

帖子

1万

积分

4K家园VIP

Rank: 9Rank: 9Rank: 9

积分
15538
发表于 2021-11-11 15:00:55 | 显示全部楼层
太好啦&萬分感謝版主的無私發佈分享%
回复 支持 反对

使用道具 举报

您需要登录后才可以回帖 登录 | 立即注册

本版积分规则

精彩图文
Archiver|手机版|TAG|Sitemap|新帖|专题|联系我们:邮箱: 4kjia.com@gmail.com   

4k家园   ©2019