[4K MV] 2021 AleXa - Xtra (Performance Ver) 4k [2160P/MP4/401MB]

[复制链接]

2610

主题

2944

帖子

2万

积分

超级版主

Rank: 8Rank: 8

积分
24527
 楼主| 发表于 2021-11-8 14:11:02 | 显示全部楼层 |阅读模式

2021 AleXa - Xtra (Performance Ver) 4k.mp4_20211108_140023.012.jpg 2021 AleXa - Xtra (Performance Ver) 4k.mp4_20211108_140030.948.jpg 2021 AleXa - Xtra (Performance Ver) 4k.mp4_20211108_140037.371.jpg 2021 AleXa - Xtra (Performance Ver) 4k.mp4_20211108_140044.516.jpg 2021 AleXa - Xtra (Performance Ver) 4k.mp4_20211108_140100.252.jpg 2021 AleXa - Xtra (Performance Ver) 4k.mp4_20211108_140119.411.jpg
General
Complete name                  : E:\4K@MV\最新下载MV\2021 AleXa - Xtra (Performance Ver) 4k.mp4
Format                         : MPEG-4
Format profile                 : Base Media
Codec ID                       : isom (isom/iso2/avc1/mp41)
File size                      : 402 MiB
Duration                       : 3 min 4 s
Overall bit rate               : 18.2 Mb/s
Writing application            : Lavf58.12.100
exvr                           : EX1.8.2(C1.0.9)

Video
ID                             : 1
Format                         : AVC
Format/Info                    : Advanced Video Codec
Format profile                 : High@L5.1
Format settings                : CABAC / 4 Ref Frames
Format settings, CABAC         : Yes
Format settings, Reference fra : 4 frames
Codec ID                       : avc1
Codec ID/Info                  : Advanced Video Coding
Duration                       : 3 min 4 s
Bit rate                       : 18.1 Mb/s
Width                          : 3 840 pixels
Height                         : 2 160 pixels
Display aspect ratio           : 16:9
Frame rate mode                : Constant
Frame rate                     : 23.976 (23976/1000) FPS
Color space                    : YUV
Chroma subsampling             : 4:2:0
Bit depth                      : 8 bits
Scan type                      : Progressive
Bits/(Pixel*Frame)             : 0.091
Stream size                    : 398 MiB (99%)
Color range                    : Limited
Color primaries                : BT.709
Transfer characteristics       : BT.709
Matrix coefficients            : BT.709
Codec configuration box        : avcC

Audio
ID                             : 2
Format                         : AAC LC
Format/Info                    : Advanced Audio Codec Low Complexity
Codec ID                       : mp4a-40-2
Duration                       : 3 min 4 s
Bit rate mode                  : Constant
Bit rate                       : 192 kb/s
Channel(s)                     : 2 channels
Channel layout                 : L R
Sampling rate                  : 48.0 kHz
Frame rate                     : 46.875 FPS (1024 SPF)
Compression mode               : Lossy
Stream size                    : 4.23 MiB (1%)
Default                        : Yes
Alternate group                : 1


网盘下载失效不补:链接: https://pan.baidu.com/s/1jIjDdSMM79vAADVBDgjLww 提取码:
****此区域为收费内容****    需支付 15 金币后可查看立即购买


提供2010-2021年[4K、8K、16K(25-120fps)]高品质MV、演示片、测试片等珍藏版视频硬盘有偿拷贝工作,最新4K视频每天更新中,需要的联系本楼主!



.

上一篇:[4KMV] 2021 Karol G feat. Mariah Angeliq – El Makinon [2160P /MP4/1.19GB]
下一篇:[4K MV] 2021 TAEYEON - Weekend 4k [2160P/MP4/275MB]
回复

使用道具 举报

48

主题

1481

帖子

4313

积分

4K家园VIP

Rank: 9Rank: 9Rank: 9

积分
4313
发表于 2021-11-8 14:11:06 | 显示全部楼层
确实不错,顶先
回复 支持 反对

使用道具 举报

8

主题

1139

帖子

3383

积分

4K家园VIP

Rank: 9Rank: 9Rank: 9

积分
3383
发表于 2021-11-8 14:16:06 来自手机 | 显示全部楼层
纯粹路过,没任何兴趣,仅仅是看在老用户份上回复一下
回复 支持 反对

使用道具 举报

1

主题

1465

帖子

4245

积分

4K家园VIP

Rank: 9Rank: 9Rank: 9

积分
4245
发表于 2021-11-8 14:29:29 | 显示全部楼层
楼下的接上
回复 支持 反对

使用道具 举报

1

主题

1337

帖子

4029

积分

4K家园VIP

Rank: 9Rank: 9Rank: 9

积分
4029
发表于 2021-11-8 18:41:44 来自手机 | 显示全部楼层
楼猪V5啊
回复 支持 反对

使用道具 举报

0

主题

1666

帖子

4606

积分

4K家园VIP

Rank: 9Rank: 9Rank: 9

积分
4606
发表于 2021-11-8 21:41:05 来自手机 | 显示全部楼层
正好需要啊
回复 支持 反对

使用道具 举报

您需要登录后才可以回帖 登录 | 立即注册

本版积分规则

精彩图文
Archiver|手机版|TAG|Sitemap|新帖|专题|联系我们:邮箱: 4kjia.com@gmail.com   

4k家园   ©2019