[4K电影] 洛奇4 / Rocky IV (1985) 4K高清版本下载

[复制链接]

1134

主题

1211

帖子

9838

积分

超级版主

Rank: 8Rank: 8

积分
9838
 楼主| 发表于 2021-11-14 10:35:03 | 显示全部楼层 |阅读模式
本帖最后由 最爱4K哟 于 2021-11-14 10:52 编辑

QQ图片20211114103210_副本.png

◎译  名 洛奇4/洛基4:天下无敌/洛奇第四集龙拳虎威
◎片  名 Rocky IV
◎年  代 1985
◎产  地 美国
◎类  别 剧情 / 动作 / 运动
◎语  言 英语,俄语
◎上映日期 1985-11-27
◎IMDb评分  6.9/10 from 196065 users
◎IMDb链接  https://www.imdb.com/title/tt0089927/
◎豆瓣评分 7.7/10 from 11092 users
◎豆瓣链接 https://movie.douban.com/subject/1297445/
◎片  长 91 分钟
◎导  演 西尔维斯特·史泰龙 Sylvester Stallone
◎编  剧 西尔维斯特·史泰龙 Sylvester Stallone
◎主  演 西尔维斯特·史泰龙 Sylvester Stallone
       塔莉娅·夏尔 Talia Shire
       波特·杨 Burt Young
       卡尔·韦瑟斯 Carl Weathers
       布里吉特·尼尔森 Brigitte Nielsen
       托尼·伯顿 Tony Burton
       迈克尔·帕塔奇 Michael Pataki
       杜夫·龙格尔 Dolph Lundgren
       Stu Nahan Stu Nahan
       R·J·亚当斯 R.J. Adams
       多米尼克·巴托 Dominic Barto
       詹姆斯·布朗 James Brown
       Craig Schaefer Craig Schaefer
       George Rogan George Rogan
       Garth Shaw Garth Shaw
       Warner Wolf Warner Wolf
       Bobby Mardis Bobby Mardis
       LeRoy Neiman LeRoy Neiman
       Jeff Austin Jeff Austin
       Jack Carpenter Jack Carpenter
       Jim Bullock Jim Bullock
       James 'Cannonball' Green James 'Cannonball' Green
       Richard Kelley Richard Kelley
       Tony Maffatone Tony Maffatone
       Lou Fillipo Lou Fillipo


◎简  介

  1985年,那时正是美苏两极争霸越演越烈的年代,史泰龙自导自演的洛基系列也出到了第四集,这一系列影片旨在振奋人心、宣扬美国精神。这一集讲述的是洛基(西尔维斯特?史泰龙 Sylvester Stallone 饰)的好友前美国拳王到苏联出战他们研制的拳击机械人,不敌对手最终身遭不测。为了帮好友复仇和维护国家荣誉,洛基决定再次出马。

  出战前,洛基进行了一系列精心的准备工作,他深入到大自然,利用自然的艰苦条件刻苦训练。当一切准备妥当,洛基和苏联拳王――拳击机械人的决斗展开了!
General
Complete name                  : E:\4K@电影\Rocky.IV.1985.Ultimate.Directors.Cut.2160p.WEB-DL.DDP5.1.DV.H.265-TEPES.mp4
Format                         : MPEG-4
Format profile                 : Base Media / Version 2
Codec ID                       : mp42 (isom/mp42/dby1)
File size                      : 16.5 GiB
Duration                       : 1 h 33 min
Overall bit rate mode          : Variable
Overall bit rate               : 25.2 Mb/s
Encoded date                   : UTC 2021-11-12 19:50:53
Tagged date                    : UTC 2021-11-12 19:50:53
Writing application            : GPAC-1.1.0-DEV-rev1248-g3e4a34873-master

Video
ID                             : 1
Format                         : HEVC
Format/Info                    : High Efficiency Video Coding
Format profile                 : Main 10@L5@High
HDR format                     : Dolby Vision, Version 1.0, dvhe.05.06, BL+RPU
Codec ID                       : dvhe
Codec ID/Info                  : High Efficiency Video Coding with Dolby Vision
Duration                       : 1 h 33 min
Bit rate                       : 24.5 Mb/s
Width                          : 3 832 pixels
Height                         : 1 600 pixels
Display aspect ratio           : 2.40:1
Frame rate mode                : Constant
Frame rate                     : 23.976 (24000/1001) FPS
Color space                    : YUV
Chroma subsampling             : 4:2:0
Bit depth                      : 10 bits
Bits/(Pixel*Frame)             : 0.167
Stream size                    : 16.1 GiB (97%)
Default                        : Yes
Alternate group                : 1
Encoded date                   : UTC 2021-11-12 19:49:21
Tagged date                    : UTC 2021-11-12 19:51:20
Codec configuration box        : hvcC+dvcC

Audio
ID                             : 2
Format                         : E-AC-3
Format/Info                    : Enhanced AC-3
Commercial name                : Dolby Digital Plus
Codec ID                       : ec-3
Duration                       : 1 h 33 min
Bit rate mode                  : Constant
Bit rate                       : 640 kb/s
Maximum bit rate               : 676 kb/s
Channel(s)                     : 6 channels
Channel layout                 : L R C LFE Ls Rs
Sampling rate                  : 48.0 kHz
Frame rate                     : 31.250 FPS (1536 SPF)
Compression mode               : Lossy
Stream size                    : 430 MiB (3%)
Language                       : English
Service kind                   : Complete Main
Default                        : Yes
Alternate group                : 1
Tagged date                    : UTC 2021-11-12 19:51:20

Text #1
ID                             : 4
Format                         : Timed Text
Codec ID                       : tx3g
Duration                       : 1 h 22 min
Bit rate mode                  : Variable
Bit rate                       : 1 b/s
Stream size                    : 381 Bytes (0%)
Title                          : Forced
Language                       : English
Forced                         : Yes
Encoded date                   : UTC 2021-11-12 19:51:18
Tagged date                    : UTC 2021-11-12 19:51:20

Text #2
ID                             : 5
Format                         : Timed Text
Codec ID                       : tx3g
Duration                       : 1 h 27 min
Bit rate mode                  : Variable
Bit rate                       : 61 b/s
Stream size                    : 38.7 KiB (0%)
Language                       : English
Forced                         : No
Encoded date                   : UTC 2021-11-12 19:51:18
Tagged date                    : UTC 2021-11-12 19:51:20

Text #3
ID                             : 6
Format                         : Timed Text
Codec ID                       : tx3g
Duration                       : 1 h 27 min
Bit rate mode                  : Variable
Bit rate                       : 75 b/s
Stream size                    : 47.7 KiB (0%)
Title                          : SDH
Language                       : English
Forced                         : No
Encoded date                   : UTC 2021-11-12 19:51:19
Tagged date                    : UTC 2021-11-12 19:51:20

Menu
00:00:00.000                   : Chapter 1
00:07:21.000                   : Chapter 2
00:15:46.042                   : Chapter 3
00:22:21.041                   : Chapter 4
00:30:42.000                   : Chapter 5
00:37:08.000                   : Chapter 6
00:44:12.000                   : Chapter 7
00:51:17.666                   : Chapter 8
00:58:33.916                   : Chapter 9
01:02:47.500                   : Chapter 10
01:11:55.000                   : Chapter 11
01:17:27.000                   : Chapter 12
01:27:10.000                   : Chapter 13
迅雷下载资源速度为零,资源敏感或被和谐时,推荐使用qBittorrent等无限速下载软件,有条件的推荐115更好的下载软件!

游客,如果您要查看本帖隐藏内容请回复

游客,如果您要查看本帖隐藏内容请回复

游客,如果您要查看本帖隐藏内容请回复




.

上一篇:尚气与十环传奇 (内封中字) (2021) 4K高清IMAX版本下载
下一篇:重访肯尼迪:通过望远镜 (2021) 4K高清版本下载
回复

使用道具 举报

0

主题

1288

帖子

3880

积分

4K家园VIP

Rank: 9Rank: 9Rank: 9

积分
3880
发表于 2021-11-14 10:35:08 | 显示全部楼层
楼猪V5啊
回复 支持 反对

使用道具 举报

0

主题

207

帖子

1263

积分

注册会员

Rank: 2

积分
1263
发表于 2021-11-14 12:49:00 | 显示全部楼层
谢谢楼主分享字幕
回复 支持 反对

使用道具 举报

0

主题

6718

帖子

1万

积分

4K家园VIP

Rank: 9Rank: 9Rank: 9

积分
15606
发表于 2021-11-14 12:54:37 | 显示全部楼层
太好啦&萬分感謝版主的無私發佈分享%
回复 支持 反对

使用道具 举报

2

主题

1377

帖子

3981

积分

中级会员

Rank: 4

积分
3981
发表于 2021-11-14 15:29:57 | 显示全部楼层
无论是不是沙发都得回复下
回复 支持 反对

使用道具 举报

1

主题

1377

帖子

3979

积分

4K家园VIP

Rank: 9Rank: 9Rank: 9

积分
3979
发表于 2021-11-14 18:07:54 | 显示全部楼层
佩服佩服!
回复 支持 反对

使用道具 举报

0

主题

3

帖子

12

积分

新手上路

Rank: 1

积分
12
发表于 2021-11-14 22:33:14 | 显示全部楼层
无论是不是沙发都得回复下
回复 支持 反对

使用道具 举报

0

主题

1362

帖子

3930

积分

4K家园VIP

Rank: 9Rank: 9Rank: 9

积分
3930
发表于 2021-11-15 10:10:21 | 显示全部楼层
啥玩应呀
回复 支持 反对

使用道具 举报

0

主题

1

帖子

6

积分

新手上路

Rank: 1

积分
6
发表于 2021-11-15 12:36:50 | 显示全部楼层

cum on teen tits

cum on teen tits
回复 支持 反对

使用道具 举报

37

主题

1443

帖子

4145

积分

4K家园VIP

Rank: 9Rank: 9Rank: 9

积分
4145
发表于 2021-11-15 20:45:18 | 显示全部楼层
鼎力支持!!
回复 支持 反对

使用道具 举报

您需要登录后才可以回帖 登录 | 立即注册

本版积分规则

精彩图文
Archiver|手机版|TAG|Sitemap|新帖|专题|联系我们:邮箱: 4kjia.com@gmail.com   

4k家园   ©2019