[4Kjia独享4K资源] 圣诞奇迹王牌马/Ace.and.the.Christmas.Miracle (2021) 4K高清版本下载

[复制链接]

1130

主题

1203

帖子

9797

积分

超级版主

Rank: 8Rank: 8

积分
9797
 楼主| 发表于 2021-11-16 18:39:13 | 显示全部楼层 |阅读模式
本帖最后由 最爱4K哟 于 2021-11-16 20:04 编辑

QQ图片20211116200310_副本.png

◎译  名 圣诞奇迹王牌马 / 圣诞奇迹
◎片  名 Ace.and.the.Christmas.Miracle
◎年  代 2021
◎产  地 美国
◎类  别 喜剧 / 家庭
◎语  言 英语
◎上映日期 2021-11-15(美国)
◎IMDb评分  0/10 from 0 users
◎IMDb链接  https://www.imdb.com/title/tt11927670
◎豆瓣评分 0/10 from 0 users
◎豆瓣链接 https://movie.douban.com/subject/35618509/
◎片  长 91 分钟
◎导  演 阿西夫·阿克巴
◎编  剧 阿西夫·阿克巴
◎主  演 乔恩·拉威茨
                   布兰迪·罗德里克
                   詹姆斯·查尔克
                   尼克·安努齐亚塔
                   考特尼·阿克巴
                   Keaton Roderick Cadrez
                   莎拉·阿苏玛
                   史蒂文·蔡斯




◎简  介


      现在是圣诞节,阿曼达(布兰德·罗德里克饰)在经历了一场不公平的离婚后的“从此幸福”之后,必须在为时已晚之前拿出一个计划来确保她10岁的儿子丹尼尔的未来。在一年一度的加州葡萄酒之乡圣诞德比中,阿曼达遇到了两个不幸的人,他们运气不好,执行了她的计划。在一匹名叫艾斯的会说话的马和他的赛马朋友们的帮助下,阿曼达找到了一条通往另一个“从此幸福快乐”的奇迹之路。
General
Complete name                  : E:\4K@电影\Ace.and.the.Christmas.Miracle.2021.2160p.WEB-DL.DD5.1.HEVC-EVO.mkv
Format                         : Matroska
Format version                 : Version 4
File size                      : 13.5 GiB
Duration                       : 1 h 31 min
Overall bit rate               : 21.1 Mb/s
Encoded date                   : UTC 2021-11-16 05:48:27
Writing application            : mkvmerge v19.0.0 ('Brave Captain') 64-bit
Writing library                : libebml v1.3.5 + libmatroska v1.4.8

Video
ID                             : 1
Format                         : HEVC
Format/Info                    : High Efficiency Video Coding
Format profile                 : Main 10@L5@High
Codec ID                       : V_MPEGH/ISO/HEVC
Duration                       : 1 h 31 min
Bit rate                       : 20.3 Mb/s
Width                          : 3 832 pixels
Height                         : 2 152 pixels
Display aspect ratio           : 16:9
Frame rate mode                : Constant
Frame rate                     : 23.976 (24000/1001) FPS
Color space                    : YUV
Chroma subsampling             : 4:2:0
Bit depth                      : 10 bits
Bits/(Pixel*Frame)             : 0.103
Stream size                    : 13.0 GiB (96%)
Default                        : Yes
Forced                         : No
Color range                    : Limited
Color primaries                : BT.709
Transfer characteristics       : BT.709
Matrix coefficients            : BT.709

Audio
ID                             : 2
Format                         : AC-3
Format/Info                    : Audio Coding 3
Commercial name                : Dolby Digital
Codec ID                       : A_AC3
Duration                       : 1 h 31 min
Bit rate mode                  : Constant
Bit rate                       : 384 kb/s
Channel(s)                     : 6 channels
Channel layout                 : L R C LFE Ls Rs
Sampling rate                  : 48.0 kHz
Frame rate                     : 31.250 FPS (1536 SPF)
Compression mode               : Lossy
Stream size                    : 251 MiB (2%)
Title                          : English
Language                       : English
Service kind                   : Complete Main
Default                        : No
Forced                         : No

迅雷下载资源速度为零,资源敏感或被和谐时,推荐使用qBittorrent等无限速下载软件,有条件的推荐115更好的下载软件!

****此区域为收费内容****    需支付 9 金币后可查看立即购买

游客,如果您要查看本帖隐藏内容请回复





.
QQ图片20211116182515_副本.png
QQ图片20211116182515_副本.png

上一篇:重访肯尼迪:通过望远镜 (2021) 4K高清版本下载
下一篇:星际迷航 / Star Trek (2009) 4K高清版本下载
回复

使用道具 举报

6

主题

1385

帖子

4031

积分

中级会员

Rank: 4

积分
4031
发表于 2021-11-16 18:39:17 | 显示全部楼层
我擦!我要沙发!
回复 支持 反对

使用道具 举报

0

主题

6676

帖子

1万

积分

4K家园VIP

Rank: 9Rank: 9Rank: 9

积分
15538
发表于 2021-11-16 19:39:29 | 显示全部楼层
太好啦&萬分感謝版主的無私發佈分享%
回复 支持 反对

使用道具 举报

1

主题

1369

帖子

3943

积分

4K家园VIP

Rank: 9Rank: 9Rank: 9

积分
3943
发表于 2021-11-17 02:24:11 | 显示全部楼层
佩服佩服!
回复 支持 反对

使用道具 举报

1

主题

1697

帖子

4699

积分

4K家园VIP

Rank: 9Rank: 9Rank: 9

积分
4699
发表于 2021-11-17 10:27:54 | 显示全部楼层
回个帖子,下班咯~
回复 支持 反对

使用道具 举报

0

主题

1288

帖子

3880

积分

4K家园VIP

Rank: 9Rank: 9Rank: 9

积分
3880
发表于 2021-11-17 13:06:35 | 显示全部楼层
4K电影下个试试
回复 支持 反对

使用道具 举报

3

主题

1261

帖子

3805

积分

4K家园VIP

Rank: 9Rank: 9Rank: 9

积分
3805
发表于 2021-11-18 00:04:32 | 显示全部楼层
回复 支持 反对

使用道具 举报

0

主题

115

帖子

280

积分

新手上路

Rank: 1

积分
280
QQ
发表于 2021-11-19 10:18:07 | 显示全部楼层
回复回复
感谢楼主分享
回复 支持 反对

使用道具 举报

您需要登录后才可以回帖 登录 | 立即注册

本版积分规则

精彩图文
Archiver|手机版|TAG|Sitemap|新帖|专题|联系我们:邮箱: 4kjia.com@gmail.com   

4k家园   ©2019