[4K电影] 致命催眠(俄版) / Hypnotic (2021) 4K高清版本下载

[复制链接]

1134

主题

1211

帖子

9838

积分

超级版主

Rank: 8Rank: 8

积分
9838
 楼主| 发表于 2021-11-17 13:18:59 | 显示全部楼层 |阅读模式
QQ图片20211117124939_副本.png

◎译  名 致命催眠
◎片  名 Hypnotic
◎年  代 2021
◎产  地 美国
◎类  别 惊悚 / 恐怖
◎语  言 英语
◎上映日期 2021-10-27(美国网络)
◎IMDb评分  0/10 from 0 users
◎IMDb链接  https://www.imdb.com/title/tt12383460/
◎豆瓣评分 5.1/723 from 0 users
◎豆瓣链接 https://movie.douban.com/subject/35591901/
◎片  长 88分钟
◎导  演 马特·安吉 /苏珊娜·寇特
◎编  剧 理查德·奥维德
◎演  员 凯特·西格尔
       杰森·奥玛拉
       杜勒·希尔
                  Lucie Guest
                  杰米·M·卡利卡
                  Tanja Dixon-Warren
                  卢克·罗德里克
                  德文·达尔顿
                  Stephanie Cudmore
                  杰西·弗雷泽
                  Darien Martin
                  Madeleine Kelders



◎简  介

  一位不断追求着自我完善的年轻女子去寻求了一位著名催眠治疗师的帮助。但是,在经历了几次紧张的治疗后,她发现自己似乎陷入了可怕的死亡境遇中...

General
Complete name                  : E:\4K@电影\Hypnotic.2021.2160p.NF.WEBRip.DD+.5.1.Atmos.HDR.DoVi..by.DVT.mkv
Format                         : Matroska
Format version                 : Version 4
File size                      : 8.49 GiB
Duration                       : 1 h 29 min
Overall bit rate               : 13.5 Mb/s
Movie name                     : Hypnotic (2021) - Release by Dolby Vision Torrents
Encoded date                   : UTC 2021-11-14 16:18:30
Writing application            : mkvmerge v62.0.0 ('Apollo') 64-bit
Writing library                : libebml v1.4.2 + libmatroska v1.6.4

Video
ID                             : 1
Format                         : HEVC
Format/Info                    : High Efficiency Video Coding
Format profile                 : Main 10@L5.1@High
HDR format                     : Dolby Vision, Version 1.0, dvhe.08.06, BL+RPU, HDR10 compatible / SMPTE ST 2086, HDR10 compatible
Codec ID                       : V_MPEGH/ISO/HEVC
Duration                       : 1 h 28 min
Bit rate                       : 12.5 Mb/s
Width                          : 3 840 pixels
Height                         : 1 600 pixels
Display aspect ratio           : 2.40:1
Frame rate mode                : Constant
Frame rate                     : 24.000 FPS
Color space                    : YUV
Chroma subsampling             : 4:2:0 (Type 2)
Bit depth                      : 10 bits
Bits/(Pixel*Frame)             : 0.085
Stream size                    : 7.72 GiB (91%)
Title                          : Hypnotic (2021)
Writing library                : x265 3.5+12+14-106329cbd:[Windows][GCC 10.3.0][64 bit] 10bit
Encoding settings              : cpuid=1111039 / frame-threads=4 / numa-pools=28 / wpp / no-pmode / no-pme / no-psnr / no-ssim / log-level=2 / input-csp=1 / input-res=3840x1600 / interlace=0 / total-frames=118677 / level-idc=51 / high-tier=1 / uhd-bd=0 / ref=4 / no-allow-non-conformance / repeat-headers / annexb / aud / no-eob / no-eos / hrd / info / hash=0 / no-temporal-layers / open-gop / min-keyint=24 / keyint=250 / gop-lookahead=0 / bframes=4 / b-adapt=2 / b-pyramid / bframe-bias=0 / rc-lookahead=25 / lookahead-slices=4 / scenecut=40 / no-hist-scenecut / radl=0 / no-splice / no-intra-refresh / ctu=64 / min-cu-size=8 / rect / no-amp / max-tu-size=32 / tu-inter-depth=1 / tu-intra-depth=1 / limit-tu=0 / rdoq-level=2 / dynamic-rd=0.00 / no-ssim-rd / signhide / no-tskip / nr-intra=0 / nr-inter=0 / no-constrained-intra / strong-intra-smoothing / max-merge=3 / limit-refs=3 / limit-modes / me=3 / subme=3 / merange=57 / temporal-mvp / no-frame-dup / no-hme / weightp / no-weightb / no-analyze-src-pics / deblock=-2:-2 / no-sao / no-sao-non-deblock / rd=4 / selective-sao=0 / no-early-skip / rskip / no-fast-intra / no-tskip-fast / no-cu-lossless / no-b-intra / no-splitrd-skip / rdpenalty=0 / psy-rd=2.00 / psy-rdoq=1.00 / no-rd-refine / no-lossless / cbqpoffs=0 / crqpoffs=0 / rc=crf / crf=14.0 / qcomp=0.60 / qpstep=4 / stats-write=0 / stats-read=0 / vbv-maxrate=98000 / vbv-bufsize=98000 / vbv-init=0.9 / min-vbv-fullness=50.0 / max-vbv-fullness=80.0 / crf-max=0.0 / crf-min=0.0 / ipratio=1.40 / pbratio=1.30 / aq-mode=1 / aq-strength=1.00 / cutree / zone-count=0 / no-strict-cbr / qg-size=32 / no-rc-grain / qpmax=69 / qpmin=0 / no-const-vbv / sar=0 / overscan=0 / videoformat=5 / range=0 / colorprim=9 / transfer=16 / colormatrix=9 / chromaloc=1 / chromaloc-top=2 / chromaloc-bottom=2 / display-window=0 / master-display=G(13250,34500)B(7500,3000)R(34000,16000)WP(15635,16450)L(10000000,1) / cll=1064,167 / min-luma=0 / max-luma=1023 / log2-max-poc-lsb=8 / vui-timing-info / vui-hrd-info / slices=1 / no-opt-qp-pps / no-opt-ref-list-length-pps / no-multi-pass-opt-rps / scenecut-bias=0.05 / hist-threshold=0.03 / no-opt-cu-delta-qp / no-aq-motion / hdr10 / hdr10-opt / no-dhdr10-opt / no-idr-recovery-sei / analysis-reuse-level=0 / analysis-save-reuse-level=0 / analysis-load-reuse-level=0 / scale-factor=0 / refine-intra=0 / refine-inter=0 / refine-mv=1 / refine-ctu-distortion=0 / no-limit-sao / ctu-info=0 / no-lowpass-dct / refine-analysis-type=0 / copy-pic=1 / max-ausize-factor=1.0 / no-dynamic-refine / no-single-sei / no-hevc-aq / no-svt / no-field / qp-adaptation-range=1.00 / scenecut-aware-qp=0 / conformance-window-right-offset=0 / conformance-window-bottom-offset=0 / decoder-max-rate=0 / no-vbv-live-multi-pass
Language                       : English
Default                        : Yes
Forced                         : No
Color range                    : Limited
Color primaries                : BT.2020
Transfer characteristics       : PQ
Matrix coefficients            : BT.2020 non-constant
Mastering display color primar : Display P3
Mastering display luminance    : min: 0.0001 cd/m2, max: 1000 cd/m2
Maximum Content Light Level    : 1064 cd/m2
Maximum Frame-Average Light Le : 167 cd/m2

Audio #1
ID                             : 2
Format                         : AC-3
Format/Info                    : Audio Coding 3
Commercial name                : Dolby Digital
Codec ID                       : A_AC3
Duration                       : 1 h 29 min
Bit rate mode                  : Constant
Bit rate                       : 448 kb/s
Channel(s)                     : 6 channels
Channel layout                 : L R C LFE Ls Rs
Sampling rate                  : 48.0 kHz
Frame rate                     : 31.250 FPS (1536 SPF)
Compression mode               : Lossy
Stream size                    : 288 MiB (3%)
Title                          : Pazl Voice - AC3 5.1
Language                       : Russian
Service kind                   : Complete Main
Default                        : Yes
Forced                         : No

Audio #2
ID                             : 3
Format                         : E-AC-3 JOC
Format/Info                    : Enhanced AC-3 with Joint Object Coding
Commercial name                : Dolby Digital Plus with Dolby Atmos
Codec ID                       : A_EAC3
Duration                       : 1 h 29 min
Bit rate mode                  : Constant
Bit rate                       : 768 kb/s
Channel(s)                     : 6 channels
Channel layout                 : L R C LFE Ls Rs
Sampling rate                  : 48.0 kHz
Frame rate                     : 31.250 FPS (1536 SPF)
Compression mode               : Lossy
Stream size                    : 493 MiB (6%)
Title                          : English - EAC3 5.1+Atmos
Language                       : English
Service kind                   : Complete Main
Default                        : No
Forced                         : No
Complexity index               : 16
Number of dynamic objects      : 15
Bed channel count              : 1 channel
Bed channel configuration      : LFE

Text #1
ID                             : 4
Format                         : UTF-8
Codec ID                       : S_TEXT/UTF8
Codec ID/Info                  : UTF-8 Plain Text
Duration                       : 1 h 28 min
Bit rate                       : 67 b/s
Count of elements              : 956
Stream size                    : 43.9 KiB (0%)
Title                          : Full
Language                       : Russian
Default                        : No
Forced                         : No

Text #2
ID                             : 5
Format                         : UTF-8
Codec ID                       : S_TEXT/UTF8
Codec ID/Info                  : UTF-8 Plain Text
Duration                       : 1 h 28 min
Bit rate                       : 72 b/s
Count of elements              : 957
Stream size                    : 46.7 KiB (0%)
Title                          : Full
Language                       : Ukrainian
Default                        : No
Forced                         : No

Text #3
ID                             : 6
Format                         : UTF-8
Codec ID                       : S_TEXT/UTF8
Codec ID/Info                  : UTF-8 Plain Text
Duration                       : 1 h 27 min
Bit rate                       : 56 b/s
Count of elements              : 1216
Stream size                    : 36.1 KiB (0%)
Title                          : Full SDH
Language                       : English
Default                        : No
Forced                         : No
迅雷下载资源速度为零,资源敏感或被和谐时,推荐使用qBittorrent等无限速下载软件,有条件的推荐115更好的下载软件!

下载地址

****此区域为收费内容****    需支付 9 金币后可查看立即购买


俄版资源,需要其他语言或字幕,请自行转换音轨或字幕


.


上一篇:星际迷航2:暗黑无界 / Star.Trek.Into.Darkness (2013) 4K高清版本下载
下一篇:幽灵公主 / Princess.Mononoke (1997) 4K高清版本下载
回复

使用道具 举报

1

主题

1337

帖子

4029

积分

4K家园VIP

Rank: 9Rank: 9Rank: 9

积分
4029
发表于 2021-11-17 13:19:04 | 显示全部楼层
什么东西啊
回复 支持 反对

使用道具 举报

50

主题

1415

帖子

4055

积分

4K家园VIP

Rank: 9Rank: 9Rank: 9

积分
4055
发表于 2021-11-17 15:56:03 | 显示全部楼层
支持,楼下的跟上哈~
回复 支持 反对

使用道具 举报

0

主题

6718

帖子

1万

积分

4K家园VIP

Rank: 9Rank: 9Rank: 9

积分
15606
发表于 2021-11-17 16:04:57 | 显示全部楼层
太好啦&萬分感謝版主的無私發佈分享%
回复 支持 反对

使用道具 举报

0

主题

1143

帖子

3443

积分

4K家园VIP

Rank: 9Rank: 9Rank: 9

积分
3443
发表于 2021-11-17 23:44:54 来自手机 | 显示全部楼层
多谢楼主分享
回复 支持 反对

使用道具 举报

39

主题

1396

帖子

3950

积分

4K家园VIP

Rank: 9Rank: 9Rank: 9

积分
3950
发表于 2021-11-18 04:53:02 | 显示全部楼层
看起来好像不错的样子
回复 支持 反对

使用道具 举报

40

主题

1449

帖子

4151

积分

4K家园VIP

Rank: 9Rank: 9Rank: 9

积分
4151
发表于 2021-11-18 05:02:53 | 显示全部楼层
路过
回复 支持 反对

使用道具 举报

您需要登录后才可以回帖 登录 | 立即注册

本版积分规则

精彩图文
Archiver|手机版|TAG|Sitemap|新帖|专题|联系我们:邮箱: 4kjia.com@gmail.com   

4k家园   ©2019