[4K电影] Soho区惊魂夜 / Last Night in Soho (2021) 4K高清版本下载

[复制链接]

1339

主题

1444

帖子

1万

积分

超级版主

Rank: 8Rank: 8

积分
11232
 楼主| 发表于 2021-11-18 20:10:13 | 显示全部楼层 |阅读模式
本帖最后由 最爱4K哟 于 2022-1-13 10:17 编辑

QQ图片20211118200631_副本.png

◎译  名 Soho区惊魂夜/苏豪的最后一夜(港)/迷离夜苏活(台)
◎片  名 Last Night in Soho
◎年  代 2021
◎产  地 英国
◎类  别 悬疑 / 恐怖
◎语  言 英语
◎上映日期 2021-09-04(威尼斯电影节) / 2021-10-29(美国)
◎IMDb评分 7.5/10 from 24287 users
◎IMDb链接 https://www.imdb.com/title/tt9639470/
◎豆瓣评分 7.3/10 from 1361 users
◎豆瓣链接 https://movie.douban.com/subject/30447440/
◎片  长 116分钟
◎导  演 埃德加·赖特 Edgar Wright
◎编  剧 埃德加·赖特 Edgar Wright / 克里斯蒂·威尔逊-凯恩斯 Krysty Wilson-Cairns
◎主  演 托马辛·麦肯齐 Thomasin McKenzie
      安雅·泰勒-乔伊 Anya Taylor-Joy
      马特·史密斯 Matt Smith
      黛安娜·里格 Diana Rigg
      特伦斯·斯坦普 Terence Stamp
      莉莎·麦格里利斯 Lisa McGrillis
      詹姆斯·菲尔浦斯 James Phelps
      洁西·梅·李 Jessie Mei Li
      奥利弗·费尔普斯 Oliver Phelps
      丽塔·塔欣厄姆 Rita Tushingham
      西诺薇·卡尔森 Synnove Karlsen
      玛格丽特·诺兰 Margaret Nolan
      安德鲁·比克内尔 Andrew Bicknell
      迈克尔·吉普森 Michael Jibson
      卡西厄斯·纳尔逊 Kassius Nelson
      丽贝卡·哈罗德 Rebecca Harrod
      乔什·扎雷 Josh Zaré
      科林·梅斯 Colin Mace
      尼克·欧文福特 Nick Owenford
      乔基姆·斯卡利 Joakim Skarli
      亚当·索普 Adam Sopp
      威尔·罗杰斯 Will Rogers
      格林·安格尔 Glyn Angell
      金·查普曼 Kim Chapman


◎简  介

  一个对时装设计充满激情的年轻女孩神秘地进入了20世纪60年代,在那里她遇到了自己的偶像,一个令人眼花缭乱的准歌手。但上世纪60年代的伦敦并不是它看起来的那样,时间似乎随着阴暗的后果而分崩离析。

General
Complete name                  : E:\4K@电影\Last.Night.in.Soho.2021.2160p.WEB-DL.x265.10bit.HDR.DDP5.1.Atmos-NOGRP.mkv
Format                         : Matroska
Format version                 : Version 4
File size                      : 12.4 GiB
Duration                       : 1 h 57 min
Overall bit rate               : 15.1 Mb/s
Encoded date                   : UTC 2021-11-18 06:50:21
Writing application            : mkvmerge v63.0.0 ('Everything') 64-bit
Writing library                : libebml v1.4.2 + libmatroska v1.6.4
IsTruncated                    : Yes

Video
ID                             : 1
Format                         : HEVC
Format/Info                    : High Efficiency Video Coding
Format profile                 : Main 10@L5@High
HDR format                     : SMPTE ST 2086, HDR10 compatible
Codec ID                       : V_MPEGH/ISO/HEVC
Duration                       : 1 h 57 min
Bit rate                       : 14.1 Mb/s
Width                          : 3 836 pixels
Height                         : 1 602 pixels
Display aspect ratio           : 2.40:1
Frame rate mode                : Constant
Frame rate                     : 23.976 (24000/1001) FPS
Color space                    : YUV
Chroma subsampling             : 4:2:0 (Type 2)
Bit depth                      : 10 bits
Bits/(Pixel*Frame)             : 0.095
Stream size                    : 11.5 GiB (93%)
Default                        : Yes
Forced                         : No
Color range                    : Limited
Color primaries                : BT.2020
Transfer characteristics       : PQ
Matrix coefficients            : BT.2020 non-constant
Mastering display color primar : BT.2020
Mastering display luminance    : min: 0.0050 cd/m2, max: 1000 cd/m2
Maximum Content Light Level    : 9013 cd/m2
Maximum Frame-Average Light Le : 426 cd/m2

Audio
ID                             : 2
Format                         : E-AC-3 JOC
Format/Info                    : Enhanced AC-3 with Joint Object Coding
Commercial name                : Dolby Digital Plus with Dolby Atmos
Codec ID                       : A_EAC3
Duration                       : 1 h 57 min
Bit rate mode                  : Constant
Bit rate                       : 768 kb/s
Channel(s)                     : 6 channels
Channel layout                 : L R C LFE Ls Rs
Sampling rate                  : 48.0 kHz
Frame rate                     : 31.250 FPS (1536 SPF)
Compression mode               : Lossy
Stream size                    : 643 MiB (5%)
Title                          : British English
Language                       : English
Service kind                   : Complete Main
Default                        : No
Forced                         : No
Complexity index               : 16
Number of dynamic objects      : 15
Bed channel count              : 1 channel
Bed channel configuration      : LFE

Text #1
ID                             : 3
Format                         : UTF-8
Codec ID                       : S_TEXT/UTF8
Codec ID/Info                  : UTF-8 Plain Text
Language                       : English
Default                        : Yes
Forced                         : No

Text #2
ID                             : 4
Format                         : UTF-8
Codec ID                       : S_TEXT/UTF8
Codec ID/Info                  : UTF-8 Plain Text
Title                          : Spanish
Language                       : Spanish
Default                        : No
Forced                         : No

迅雷下载资源速度为零,资源敏感或被和谐时,推荐使用qBittorrent等无限速下载软件,有条件的推荐115更好的下载软件!

游客,如果您要查看本帖隐藏内容请回复

游客,如果您要查看本帖隐藏内容请回复

游客,如果您要查看本帖隐藏内容请回复



.

上一篇:幽灵公主 / Princess.Mononoke (1997) 4K高清版本下载
下一篇:永无止境 / Limitless (2011) 4K高清版本下载
回复

使用道具 举报

40

主题

1502

帖子

4302

积分

4K家园VIP

Rank: 9Rank: 9Rank: 9

积分
4302
发表于 2021-11-18 20:10:18 | 显示全部楼层
楼主呀,,,您太有才了。。。
回复 支持 反对

使用道具 举报

5

主题

1346

帖子

4064

积分

4K家园VIP

Rank: 9Rank: 9Rank: 9

积分
4064
发表于 2021-11-18 20:10:18 来自手机 | 显示全部楼层
very good
回复 支持 反对

使用道具 举报

36

主题

1370

帖子

3924

积分

4K家园VIP

Rank: 9Rank: 9Rank: 9

积分
3924
发表于 2021-11-18 20:10:18 | 显示全部楼层
好像还可以
回复 支持 反对

使用道具 举报

0

主题

7280

帖子

1万

积分

4K家园VIP

Rank: 9Rank: 9Rank: 9

积分
16651
发表于 2021-11-18 22:16:25 | 显示全部楼层
太好啦&萬分感謝版主的無私發佈分享%
回复 支持 反对

使用道具 举报

0

主题

1

帖子

6

积分

新手上路

Rank: 1

积分
6
发表于 2021-11-18 22:52:32 | 显示全部楼层
nice!
回复

使用道具 举报

1

主题

1307

帖子

3937

积分

4K家园VIP

Rank: 9Rank: 9Rank: 9

积分
3937
发表于 2021-11-19 04:02:27 | 显示全部楼层
围观 围观 沙发在哪里!!!
回复 支持 反对

使用道具 举报

3

主题

1307

帖子

3941

积分

4K家园VIP

Rank: 9Rank: 9Rank: 9

积分
3941
发表于 2021-11-19 05:40:19 | 显示全部楼层
支持,赞一个
回复 支持 反对

使用道具 举报

0

主题

6

帖子

31

积分

新手上路

Rank: 1

积分
31
发表于 2021-11-19 09:38:03 | 显示全部楼层
有没有免费的,下一个试试速度?
回复 支持 反对

使用道具 举报

0

主题

240

帖子

1473

积分

注册会员

Rank: 2

积分
1473
发表于 2021-11-19 14:42:32 | 显示全部楼层
感謝版主的無私發佈
回复 支持 反对

使用道具 举报

您需要登录后才可以回帖 登录 | 立即注册

本版积分规则

精彩图文
Archiver|手机版|TAG|Sitemap|新帖|专题|联系我们:邮箱: 4kjia.com@gmail.com   

4k家园   ©2019