[4Kjia独享4K资源] 亚当斯一家2 / The Addams Family 2 (2021) 4K高清版本下载

[复制链接]

1130

主题

1203

帖子

9797

积分

超级版主

Rank: 8Rank: 8

积分
9797
 楼主| 发表于 2021-11-22 21:21:34 | 显示全部楼层 |阅读模式
本帖最后由 最爱4K哟 于 2021-11-23 10:27 编辑

QQ图片20211122210429_副本.png

◎译  名 亚当斯一家2/爱登士家庭2(港)/阿达一族2(台)
◎片  名 The Addams Family 2
◎年  代 2021
◎产  地 美国
◎类  别 喜剧 / 动画 / 奇幻
◎语  言 英语
◎上映日期 2021-10-01(美国)
◎IMDb评分  6.4/10 from 6815 users
◎IMDb链接  https://www.imdb.com/title/tt11125620
◎豆瓣评分 6.1/10 from 1099 users
◎豆瓣链接 https://movie.douban.com/subject/34857667/
◎导  演 格雷格·蒂曼 Greg Tiernan / 康拉德·弗农 Conrad Vernon
◎编  剧 查尔斯·亚当斯 Charles Addams
◎主  演 奥斯卡·伊萨克 Oscar Isaac
       查理兹·塞隆 Charlize Theron
       科洛·莫瑞兹 Chlo? Grace Moretz
       尼克·克罗尔 Nick Kroll
       杰文·旺纳·沃尔顿 Javon 'Wanna' Walton
       华莱士·肖恩 Wallace Shawn
       史努比狗狗 Snoop Dogg
       贝特·米德勒 Bette Midler
       比尔·哈德尔 Bill Hade




◎简  介

  动画电影版《亚当斯一家》将拍续集。这部黑暗哥特喜剧刚在北美上映,票房上佳(首周4天3500万美元),米高梅/联美发行公司趁热宣布:《亚当斯一家2》正式定档2021年10月22日北美上映。

General
Complete name                  : E:\4K@电影\The.Addams.Family.2.2021.2160p.WEB-DL.DD5.1.HDR.HEVC-EVO.mkv
Format                         : Matroska
Format version                 : Version 4
File size                      : 9.27 GiB
Duration                       : 1 h 32 min
Overall bit rate               : 14.3 Mb/s
Encoded date                   : UTC 2021-11-22 12:04:00
Writing application            : mkvmerge v19.0.0 ('Brave Captain') 64-bit
Writing library                : libebml v1.3.5 + libmatroska v1.4.8
IsTruncated                    : Yes

Video
ID                             : 1
Format                         : HEVC
Format/Info                    : High Efficiency Video Coding
Format profile                 : Main 10@L5@High
HDR format                     : SMPTE ST 2086, HDR10 compatible
Codec ID                       : V_MPEGH/ISO/HEVC
Duration                       : 1 h 32 min
Bit rate                       : 13.6 Mb/s
Width                          : 3 832 pixels
Height                         : 2 068 pixels
Display aspect ratio           : 1.85:1
Frame rate mode                : Constant
Frame rate                     : 23.976 (24000/1001) FPS
Color space                    : YUV
Chroma subsampling             : 4:2:0 (Type 2)
Bit depth                      : 10 bits
Bits/(Pixel*Frame)             : 0.072
Stream size                    : 8.83 GiB (95%)
Default                        : Yes
Forced                         : No
Color range                    : Limited
Color primaries                : BT.2020
Transfer characteristics       : PQ
Matrix coefficients            : BT.2020 non-constant
Mastering display color primar : BT.2020
Mastering display luminance    : min: 0.0050 cd/m2, max: 1000 cd/m2
Maximum Content Light Level    : 3910 cd/m2
Maximum Frame-Average Light Le : 836 cd/m2

Audio
ID                             : 2
Format                         : AC-3
Format/Info                    : Audio Coding 3
Commercial name                : Dolby Digital
Codec ID                       : A_AC3
Duration                       : 1 h 32 min
Bit rate mode                  : Constant
Bit rate                       : 384 kb/s
Channel(s)                     : 6 channels
Channel layout                 : L R C LFE Ls Rs
Sampling rate                  : 48.0 kHz
Frame rate                     : 31.250 FPS (1536 SPF)
Compression mode               : Lossy
Stream size                    : 255 MiB (3%)
Title                          : English
Language                       : English
Service kind                   : Complete Main
Default                        : No
Forced                         : No

迅雷下载资源速度为零或资源敏感被和谐时,推荐使用qBittorrent等下载软件,有条件的推荐115更好的下载软件!

****此区域为收费内容****    需支付 9 金币后可查看立即购买

游客,如果您要查看本帖隐藏内容请回复




.
QQ图片202111222101429_副本.png

上一篇:致埃文·汉森 / Dear Evan Hansen (2021) 4K高清版本下载
下一篇:《毒液2》11月23 日正式推出数字高清版,12月14发布4K蓝光!
回复

使用道具 举报

2

主题

1334

帖子

4024

积分

4K家园VIP

Rank: 9Rank: 9Rank: 9

积分
4024
发表于 2021-11-22 21:21:40 | 显示全部楼层
报告!别开枪,我就是路过来看看的。。。
回复 支持 反对

使用道具 举报

0

主题

6676

帖子

1万

积分

4K家园VIP

Rank: 9Rank: 9Rank: 9

积分
15538
发表于 2021-11-22 22:07:12 | 显示全部楼层
太好啦&萬分感謝版主的無私發佈分享%
回复 支持 反对

使用道具 举报

0

主题

2

帖子

9

积分

新手上路

Rank: 1

积分
9
发表于 2021-11-22 22:25:21 | 显示全部楼层
这个资源我找很长时间了,真不错找到了,谢谢分享!
回复 支持 反对

使用道具 举报

1

主题

1340

帖子

3826

积分

4K家园VIP

Rank: 9Rank: 9Rank: 9

积分
3826
发表于 2021-11-23 04:11:20 来自手机 | 显示全部楼层
回复 支持 反对

使用道具 举报

3

主题

1344

帖子

3862

积分

4K家园VIP

Rank: 9Rank: 9Rank: 9

积分
3862
发表于 2021-11-23 04:53:02 | 显示全部楼层
撸过
回复 支持 反对

使用道具 举报

3

主题

1296

帖子

3906

积分

4K家园VIP

Rank: 9Rank: 9Rank: 9

积分
3906
发表于 2021-11-23 16:30:19 | 显示全部楼层
沙发???
回复 支持 反对

使用道具 举报

0

主题

1374

帖子

3942

积分

4K家园VIP

Rank: 9Rank: 9Rank: 9

积分
3942
发表于 2021-11-24 22:11:10 | 显示全部楼层
支持,赞一个
回复 支持 反对

使用道具 举报

您需要登录后才可以回帖 登录 | 立即注册

本版积分规则

精彩图文
Archiver|手机版|TAG|Sitemap|新帖|专题|联系我们:邮箱: 4kjia.com@gmail.com   

4k家园   ©2019