[4K电影] 黑色星期五 / Black Friday (2021) 4K高清版本下载

[复制链接]

1134

主题

1211

帖子

9838

积分

超级版主

Rank: 8Rank: 8

积分
9838
 楼主| 发表于 2021-11-23 15:31:04 | 显示全部楼层 |阅读模式
本帖最后由 最爱4K哟 于 2021-11-23 15:40 编辑

QQ图片20211123153820_副本.png

◎译  名 黑色星期五 / 星期五鬼玩人
◎片  名 Black Friday
◎年  代 2021
◎产  地 美国
◎类  别 喜剧 / 恐怖
◎语  言 英语
◎上映日期 2021-11-19(美国)
◎IMDb评分  4.8/10 from 320 users
◎IMDb链接  https://www.imdb.com/title/tt11649338/
◎豆瓣评分 0/10 from 0 users
◎豆瓣链接 https://movie.douban.com/subject/35562565/
◎片  长 84 分钟
◎导  演 凯西·特博
◎编  剧 安迪·希腊文
◎主  演 迈克尔·加·怀特
                   戴文·萨瓦
                  布鲁斯·坎贝尔



◎简  介


         一群玩具店的员工必须互相保护,以防大批被寄生虫感染的购物者。
General
Complete name                  : E:\4K@电影\Black.Friday.2021.2160p.WEB-DL.x265.10bit.SDR.DDP5.1-NOGRP.mkv
Format                         : Matroska
Format version                 : Version 4
File size                      : 7.17 GiB
Duration                       : 1 h 24 min
Overall bit rate               : 12.2 Mb/s
Encoded date                   : UTC 2021-11-23 06:29:07
Writing application            : mkvmerge v63.0.0 ('Everything') 64-bit
Writing library                : libebml v1.4.2 + libmatroska v1.6.4
IsTruncated                    : Yes

Video
ID                             : 1
Format                         : HEVC
Format/Info                    : High Efficiency Video Coding
Format profile                 : Main 10@L5@High
Codec ID                       : V_MPEGH/ISO/HEVC
Duration                       : 1 h 24 min
Bit rate                       : 11.6 Mb/s
Width                          : 3 836 pixels
Height                         : 1 600 pixels
Display aspect ratio           : 2.40:1
Original display aspect ratio  : 2.40:1
Frame rate mode                : Constant
Frame rate                     : 23.976 (24000/1001) FPS
Color space                    : YUV
Chroma subsampling             : 4:2:0
Bit depth                      : 10 bits
Bits/(Pixel*Frame)             : 0.078
Stream size                    : 6.80 GiB (95%)
Language                       : English
Default                        : Yes
Forced                         : No
Color range                    : Limited
Color primaries                : BT.709
Transfer characteristics       : BT.709
Matrix coefficients            : BT.709

Audio
ID                             : 2
Format                         : AC-3
Format/Info                    : Audio Coding 3
Commercial name                : Dolby Digital
Codec ID                       : A_AC3
Duration                       : 1 h 24 min
Bit rate mode                  : Constant
Bit rate                       : 384 kb/s
Channel(s)                     : 6 channels
Channel layout                 : L R C LFE Ls Rs
Sampling rate                  : 48.0 kHz
Frame rate                     : 31.250 FPS (1536 SPF)
Compression mode               : Lossy
Stream size                    : 232 MiB (3%)
Title                          : English
Language                       : English
Service kind                   : Complete Main
Default                        : Yes
Forced                         : No

Text
ID                             : 3
Format                         : UTF-8
Codec ID                       : S_TEXT/UTF8
Codec ID/Info                  : UTF-8 Plain Text
Language                       : English
Default                        : Yes
Forced                         : No
迅雷下载资源速度为零或资源敏感被和谐时,推荐使用qBittorrent等下载软件,有条件的推荐115更好的下载软件!

游客,如果您要查看本帖隐藏内容请回复




.

上一篇:斯宾塞 / Spencer(2021) 4K高清版本下载
下一篇:内特拉姆 / Nitram (2021) 4K高清版本下载
回复

使用道具 举报

37

主题

1461

帖子

4183

积分

4K家园VIP

Rank: 9Rank: 9Rank: 9

积分
4183
发表于 2021-11-23 15:31:09 | 显示全部楼层
4K家园资源不错,前排支持
回复 支持 反对

使用道具 举报

195

主题

1545

帖子

4237

积分

4K家园VIP

Rank: 9Rank: 9Rank: 9

积分
4237
发表于 2021-11-23 15:31:09 | 显示全部楼层
4K应该不错,我也下个看看
回复 支持 反对

使用道具 举报

0

主题

12

帖子

28

积分

新手上路

Rank: 1

积分
28
发表于 2021-11-23 15:59:17 | 显示全部楼层
想看看。。
回复

使用道具 举报

0

主题

6718

帖子

1万

积分

4K家园VIP

Rank: 9Rank: 9Rank: 9

积分
15606
发表于 2021-11-23 16:18:33 | 显示全部楼层
太好啦&萬分感謝版主的無私發佈分享%
回复 支持 反对

使用道具 举报

0

主题

2

帖子

9

积分

新手上路

Rank: 1

积分
9
发表于 2021-11-23 19:18:36 | 显示全部楼层
感谢分享
回复

使用道具 举报

0

主题

1

帖子

10

积分

新手上路

Rank: 1

积分
10
发表于 2021-11-23 19:51:28 | 显示全部楼层
和笔记本
回复

使用道具 举报

62

主题

1465

帖子

4275

积分

4K家园VIP

Rank: 9Rank: 9Rank: 9

积分
4275
发表于 2021-11-23 20:41:44 | 显示全部楼层
前排顶起
回复 支持 反对

使用道具 举报

0

主题

112

帖子

550

积分

新手上路

Rank: 1

积分
550
发表于 2021-11-23 21:35:41 | 显示全部楼层

Test, just a test

Hello. And Bye.
回复 支持 反对

使用道具 举报

0

主题

112

帖子

550

积分

新手上路

Rank: 1

积分
550
发表于 2021-11-23 21:36:19 | 显示全部楼层

Test, just a test

Hello. And Bye.
回复 支持 反对

使用道具 举报

您需要登录后才可以回帖 登录 | 立即注册

本版积分规则

精彩图文
Archiver|手机版|TAG|Sitemap|新帖|专题|联系我们:邮箱: 4kjia.com@gmail.com   

4k家园   ©2019