[4K电影] 蒂米·菲列:错已铸成(内封简繁中字)(2021) 4K高清版本下载

[复制链接]

1134

主题

1211

帖子

9838

积分

超级版主

Rank: 8Rank: 8

积分
9838
 楼主| 发表于 2021-11-24 11:03:12 | 显示全部楼层 |阅读模式
QQ图片20211124105535_副本.png

◎译  名 蒂米·菲列:错已铸成 / Timmy Failure / 蒂米·菲悟
◎片  名 Timmy Failure: Mistakes Were Made
◎年  代 2020
◎产  地 美国
◎类  别 剧情 / 儿童 / 奇幻 / 冒险
◎语  言 英语
◎上映日期 2020-01-25(圣丹斯电影节) / 2020-02-07(美国)
◎IMDb评分  6.1/10 from 2704 users
◎IMDb链接  https://www.imdb.com/title/tt6820324
◎豆瓣评分 6.3/10 from 328 users
◎豆瓣链接 https://movie.douban.com/subject/27031097/
◎片  长 99分钟
◎导  演 汤姆·麦卡锡 Tom McCarthy
◎编  剧 汤姆·麦卡锡 Tom McCarthy / 斯蒂芬·帕斯蒂斯 Stephan Pastis
◎主  演 奥菲利亚·拉维邦德 Ophelia Lovibond
       华莱士·肖恩 Wallace Shawn
       凯尔·柏海莫 Kyle Bornheimer
       温斯洛·费格雷 Winslow Fegley
       克雷格·罗宾森 Craig Robinson
       克洛伊·科尔曼 Chloe Coleman
       Kei
       Allie Dunbar
       Caitlin Weierhauser
       Ruby Matenko
       艾-钱·卡里尔 Ai-Chan Carrier
       Santiago Veizaga
       丹妮·海芙琳 Danni Heverin
       Nicole Anthony
       A. Brian Daniels
       杰夫·桑卡 Jeff Sanca
       杰布·贝里耶 Jeb Berrier
       Jason Rouse



◎简  介

  该片改编自同名儿童小说,麦卡锡将同原著作者斯蒂芬·帕斯蒂斯共同编剧。该小说讲述一个11岁的小男孩蒂米·菲悟,他是一个毫无头绪,却又自信搞笑的私家侦探机构总裁。而他的搭档是一只想象出的北极熊。

General
Complete name                  : E:\4K@电影 4K@MV\Timmy.Failure.Mistakes.Were.Made.2020.2160p.WEB-DL.DDP5.1.Atmos.HDR.HEVC-TEPES.mkv
Format                         : Matroska
Format version                 : Version 4
File size                      : 15.9 GiB
Duration                       : 1 h 43 min
Overall bit rate               : 22.0 Mb/s
Writing application            : mkvmerge v59.0.0 ('Shining Star') 64-bit
Writing library                : libebml v1.4.2 + libmatroska v1.6.4

Video
ID                             : 1
Format                         : HEVC
Format/Info                    : High Efficiency Video Coding
Format profile                 : Main 10@L5@Main
Codec ID                       : V_MPEGH/ISO/HEVC
Duration                       : 1 h 43 min
Bit rate                       : 20.8 Mb/s
Width                          : 3 840 pixels
Height                         : 2 160 pixels
Display aspect ratio           : 16:9
Frame rate mode                : Constant
Frame rate                     : 23.976 (24000/1001) FPS
Color space                    : YUV
Chroma subsampling             : 4:2:0
Bit depth                      : 10 bits
Bits/(Pixel*Frame)             : 0.105
Stream size                    : 15.0 GiB (95%)
Writing library                : x265 3.4:[Linux][GCC 7.5.0][64 bit] 10bit
Encoding settings              : cpuid=1111039 / frame-threads=16 / wpp / no-pmode / no-pme / no-psnr / no-ssim / log-level=2 / input-csp=1 / input-res=3840x2160 / interlace=0 / total-frames=0 / level-idc=50 / high-tier=0 / uhd-bd=0 / ref=3 / no-allow-non-conformance / repeat-headers / annexb / no-aud / no-hrd / info / hash=0 / no-temporal-layers / no-open-gop / min-keyint=48 / keyint=48 / gop-lookahead=0 / bframes=2 / b-adapt=0 / b-pyramid / bframe-bias=0 / rc-lookahead=20 / lookahead-slices=8 / scenecut=0 / hist-scenecut=0 / radl=0 / no-splice / no-intra-refresh / ctu=32 / min-cu-size=8 / no-rect / no-amp / max-tu-size=16 / tu-inter-depth=2 / tu-intra-depth=2 / limit-tu=0 / rdoq-level=1 / dynamic-rd=0.00 / no-ssim-rd / signhide / no-tskip / nr-intra=0 / nr-inter=0 / no-constrained-intra / no-strong-intra-smoothing / max-merge=3 / limit-refs=1 / no-limit-modes / me=1 / subme=2 / merange=44 / temporal-mvp / no-frame-dup / no-hme / weightp / no-weightb / no-analyze-src-pics / deblock=0:0 / no-sao / no-sao-non-deblock / rd=4 / selective-sao=0 / early-skip / rskip / no-fast-intra / no-tskip-fast / no-cu-lossless / b-intra / no-splitrd-skip / rdpenalty=1 / psy-rd=1.60 / psy-rdoq=5.00 / no-rd-refine / no-lossless / cbqpoffs=0 / crqpoffs=0 / rc=abr / bitrate=23000 / qcomp=0.75 / qpstep=4 / stats-write=0 / stats-read=0 / vbv-maxrate=25000 / vbv-bufsize=25000 / vbv-init=0.9 / ipratio=1.40 / pbratio=1.30 / aq-mode=3 / aq-strength=1.00 / no-cutree / zone-count=0 / no-strict-cbr / qg-size=32 / no-rc-grain / qpmax=69 / qpmin=0 / no-const-vbv / sar=1 / overscan=0 / videoformat=5 / range=0 / colorprim=9 / transfer=16 / colormatrix=9 / chromaloc=0 / display-window=0 / cll=0,0 / min-luma=0 / max-luma=1023 / log2-max-poc-lsb=8 / vui-timing-info / vui-hrd-info / slices=1 / no-opt-qp-pps / no-opt-ref-list-length-pps / no-multi-pass-opt-rps / scenecut-bias=0.00 / hist-threshold=0.01 / no-opt-cu-delta-qp / no-aq-motion / no-hdr10 / hdr10-opt / no-dhdr10-opt / no-idr-recovery-sei / analysis-reuse-level=0 / analysis-save-reuse-level=0 / analysis-load-reuse-level=0 / scale-factor=0 / refine-intra=0 / refine-inter=0 / refine-mv=1 / refine-ctu-distortion=0 / no-limit-sao / ctu-info=0 / no-lowpass-dct / refine-analysis-type=0 / copy-pic=1 / max-ausize-factor=1.0 / no-dynamic-refine / no-single-sei / no-hevc-aq / no-svt / no-field / qp-adaptation-range=1.00 / no-scenecut-aware-qpconformance-window-offsets / right=0 / bottom=0
Default                        : Yes
Forced                         : No
Color range                    : Limited
Color primaries                : BT.2020
Transfer characteristics       : PQ
Matrix coefficients            : BT.2020 non-constant

Audio
ID                             : 2
Format                         : E-AC-3 JOC
Format/Info                    : Enhanced AC-3 with Joint Object Coding
Commercial name                : Dolby Digital Plus with Dolby Atmos
Codec ID                       : A_EAC3
Duration                       : 1 h 43 min
Bit rate mode                  : Constant
Bit rate                       : 768 kb/s
Channel(s)                     : 6 channels
Channel layout                 : L R C LFE Ls Rs
Sampling rate                  : 48.0 kHz
Frame rate                     : 31.250 FPS (1536 SPF)
Compression mode               : Lossy
Delay relative to video        : 12 ms
Stream size                    : 568 MiB (3%)
Language                       : English
Service kind                   : Complete Main
Default                        : Yes
Forced                         : No
Complexity index               : 16
Number of dynamic objects      : 15
Bed channel count              : 1 channel
Bed channel configuration      : LFE

Text #1
ID                             : 3
Format                         : UTF-8
Codec ID                       : S_TEXT/UTF8
Codec ID/Info                  : UTF-8 Plain Text
Language                       : English
Default                        : No
Forced                         : No

Text #2
ID                             : 4
Format                         : UTF-8
Codec ID                       : S_TEXT/UTF8
Codec ID/Info                  : UTF-8 Plain Text
Title                          : SDH
Language                       : English
Default                        : No
Forced                         : No

Text #3
ID                             : 5
Format                         : UTF-8
Codec ID                       : S_TEXT/UTF8
Codec ID/Info                  : UTF-8 Plain Text
Language                       : Danish
Default                        : No
Forced                         : No

Text #4
ID                             : 6
Format                         : UTF-8
Codec ID                       : S_TEXT/UTF8
Codec ID/Info                  : UTF-8 Plain Text
Language                       : German
Default                        : No
Forced                         : No

Text #5
ID                             : 7
Format                         : UTF-8
Codec ID                       : S_TEXT/UTF8
Codec ID/Info                  : UTF-8 Plain Text
Title                          : Latin American
Language                       : Spanish
Default                        : No
Forced                         : No

Text #6
ID                             : 8
Format                         : UTF-8
Codec ID                       : S_TEXT/UTF8
Codec ID/Info                  : UTF-8 Plain Text
Language                       : Spanish
Default                        : No
Forced                         : No

Text #7
ID                             : 9
Format                         : UTF-8
Codec ID                       : S_TEXT/UTF8
Codec ID/Info                  : UTF-8 Plain Text
Language                       : Finnish
Default                        : No
Forced                         : No

Text #8
ID                             : 10
Format                         : UTF-8
Codec ID                       : S_TEXT/UTF8
Codec ID/Info                  : UTF-8 Plain Text
Language                       : French
Default                        : No
Forced                         : No

Text #9
ID                             : 11
Format                         : UTF-8
Codec ID                       : S_TEXT/UTF8
Codec ID/Info                  : UTF-8 Plain Text
Language                       : Italian
Default                        : No
Forced                         : No

Text #10
ID                             : 12
Format                         : UTF-8
Codec ID                       : S_TEXT/UTF8
Codec ID/Info                  : UTF-8 Plain Text
Language                       : Japanese
Default                        : No
Forced                         : No

Text #11
ID                             : 13
Format                         : UTF-8
Codec ID                       : S_TEXT/UTF8
Codec ID/Info                  : UTF-8 Plain Text
Language                       : Korean
Default                        : No
Forced                         : No

Text #12
ID                             : 14
Format                         : UTF-8
Codec ID                       : S_TEXT/UTF8
Codec ID/Info                  : UTF-8 Plain Text
Language                       : Dutch
Default                        : No
Forced                         : No

Text #13
ID                             : 15
Format                         : UTF-8
Codec ID                       : S_TEXT/UTF8
Codec ID/Info                  : UTF-8 Plain Text
Language                       : Norwegian
Default                        : No
Forced                         : No

Text #14
ID                             : 16
Format                         : UTF-8
Codec ID                       : S_TEXT/UTF8
Codec ID/Info                  : UTF-8 Plain Text
Language                       : Polish
Default                        : No
Forced                         : No

Text #15
ID                             : 17
Format                         : UTF-8
Codec ID                       : S_TEXT/UTF8
Codec ID/Info                  : UTF-8 Plain Text
Title                          : Brazilian
Language                       : Portuguese
Default                        : No
Forced                         : No

Text #16
ID                             : 18
Format                         : UTF-8
Codec ID                       : S_TEXT/UTF8
Codec ID/Info                  : UTF-8 Plain Text
Language                       : Portuguese
Default                        : No
Forced                         : No

Text #17
ID                             : 19
Format                         : UTF-8
Codec ID                       : S_TEXT/UTF8
Codec ID/Info                  : UTF-8 Plain Text
Language                       : Swedish
Default                        : No
Forced                         : No

Text #18
ID                             : 20
Format                         : UTF-8
Codec ID                       : S_TEXT/UTF8
Codec ID/Info                  : UTF-8 Plain Text
Language                       : 中文
Default                        : No
Forced                         : No

Text #19
ID                             : 21
Format                         : UTF-8
Codec ID                       : S_TEXT/UTF8
Codec ID/Info                  : UTF-8 Plain Text
Title                          : 简体
Language                       : 中文
Default                        : No
Forced                         : No

Text #20
ID                             : 22
Format                         : UTF-8
Codec ID                       : S_TEXT/UTF8
Codec ID/Info                  : UTF-8 Plain Text
Title                          :繁体
Language                       : 中文
Default                        : No
Forced                         : No


Menu
01:34:19.319                   : Credits
迅雷下载资源速度为零或资源敏感被和谐时,推荐使用qBittorrent等下载软件,有条件的推荐115更好的下载软件!

游客,如果您要查看本帖隐藏内容请回复

游客,如果您要查看本帖隐藏内容请回复

游客,如果您要查看本帖隐藏内容请回复





.

上一篇:内特拉姆 / Nitram (2021) 4K高清版本下载
下一篇:世纪的婚礼 / The Wedding of the Century (2021) 4K高清版本下载
回复

使用道具 举报

2

主题

1639

帖子

4503

积分

4K家园VIP

Rank: 9Rank: 9Rank: 9

积分
4503
发表于 2021-11-24 11:03:19 | 显示全部楼层
围观 围观 沙发在哪里!!!
回复 支持 反对

使用道具 举报

0

主题

6718

帖子

1万

积分

4K家园VIP

Rank: 9Rank: 9Rank: 9

积分
15606
发表于 2021-11-24 18:29:42 | 显示全部楼层
太好啦&萬分感謝版主的無私發佈分享%
回复 支持 反对

使用道具 举报

48

主题

1507

帖子

4343

积分

4K家园VIP

Rank: 9Rank: 9Rank: 9

积分
4343
发表于 2021-11-25 15:30:44 | 显示全部楼层
鄙视楼下的顶帖没我快,哈哈
回复 支持 反对

使用道具 举报

3

主题

1736

帖子

4756

积分

中级会员

Rank: 4

积分
4756
发表于 2021-11-25 21:40:06 | 显示全部楼层
支持支持再支持
回复 支持 反对

使用道具 举报

0

主题

1666

帖子

4510

积分

4K家园VIP

Rank: 9Rank: 9Rank: 9

积分
4510
发表于 2021-11-25 21:51:57 | 显示全部楼层
在撸一遍。。。
回复 支持 反对

使用道具 举报

30

主题

1188

帖子

3542

积分

4K家园VIP

Rank: 9Rank: 9Rank: 9

积分
3542
发表于 2021-11-26 10:37:34 来自手机 | 显示全部楼层
顶起顶起顶起
回复 支持 反对

使用道具 举报

您需要登录后才可以回帖 登录 | 立即注册

本版积分规则

精彩图文
Archiver|手机版|TAG|Sitemap|新帖|专题|联系我们:邮箱: 4kjia.com@gmail.com   

4k家园   ©2019