吸血鬼生活 (2019) / 第二季全10集 / 4K高清版本下载

[复制链接]

52

主题

59

帖子

602

积分

版主

Rank: 7Rank: 7Rank: 7

积分
602
 楼主| 发表于 2021-11-25 15:17:15 | 显示全部楼层 |阅读模式
本帖最后由 美剧小虾 于 2021-11-25 15:39 编辑

p2593770708_副本.jpg

◎译  名 吸血鬼生活 第二季/低俗僵尸玩出征(港)/吸血鬼家庭尸篇(台)
◎片  名 What We Do in the Shadows Season 2
◎年  代 2020
◎产  地 美国
◎类  别 喜剧/恐怖/奇幻
◎语  言 英语
◎上映日期 2019-03-27(美国)
◎IMDb评分  8.6/10 from 55887 users
◎IMDb链接  https://www.imdb.com/title/tt7908628/
◎豆瓣评分 9.2/10 from 2641 users
◎豆瓣链接 https://movie.douban.com/subject/33437776/
◎集  数 10
◎片  长 23分钟
◎导  演 杰梅奈·克莱门特 / 凯尔·纽瓦切克 / 丽萨·约翰逊
◎编  剧 杰梅奈·克莱门特 / 塔伊加·维迪提
◎主  演 凯万·诺瓦克
                   马特·贝里
                   娜塔希亚·德米特里厄斯
                   哈维·吉兰
                   马克·普罗克施
                   韦罗妮卡·斯洛维科夫斯卡
                   杰克·麦克道曼
                   安东尼·阿塔曼纽克
                   克雷格·罗宾森
                   尼克·克罗尔
                   马克·哈米尔
                   本尼迪克特·王
                   海利·乔·奥斯蒙



◎简  介



       本剧围绕四名共同“生活”上百年的吸血鬼展开,第二季中他们将继续努力在当代美国找寻自我方向,啼笑皆非地面对人类超级碗派对、网络暴民、新晋加官恋权的精力吸血鬼,以及所有自在游荡于纽约都会区的幽灵、女巫、招魂师、僵尸和潜行刺客。

◎获奖情况

  第72届黄金时段艾美奖  (2020)
  喜剧类最佳剧集(提名)
  喜剧类最佳编剧(提名) 保罗·西姆斯 / 斯蒂芬妮·罗宾逊 / 萨姆·约翰逊

  第73届美国编剧工会奖  (2021)
  电视奖喜剧类剧集最佳剧本(提名)

  第32届美国制片人工会奖  (2021)
  最佳喜剧类剧集制片人奖(提名)

  第71届美国剪辑工会奖  (2021)
  商业喜剧电视最佳剪辑(提名)

  第25届美国艺术指导工会奖  (2021)
  电视奖最佳半小时单镜头剧集艺术指导(提名) 凯特·邦奇

  第23届美国服装设计工会奖  (2021)
  科幻/奇幻题材剧集最佳服装设计(提名) 阿曼达·尼尔

  第11届美国评论家选择电视奖  (2021)
  喜剧类最佳剧集(提名)
  喜剧类最佳男主角(提名) 马特·贝里
  喜剧类最佳女主角(提名) 娜塔希亚·德米特里厄斯
  喜剧类最佳男配角(提名) 哈维·吉兰 / 马克·普罗克施

  第25届金卫星奖  (2021)
  电视部门最佳音乐/喜剧类剧集(提名)
General
Complete name                  : E:\4K@美剧 \What.We.Do.in.the.Shadows.S02E01.2160p.WEB.H265-GGEZ.mkv
Format                         : Matroska
Format version                 : Version 4
File size                      : 2.17 GiB
Duration                       : 22 min 36 s
Overall bit rate               : 13.8 Mb/s
Writing application            : mkvmerge v59.0.0 ('Shining Star') 64-bit
Writing library                : libebml v1.4.2 + libmatroska v1.6.4
IsTruncated                    : Yes

Video
ID                             : 1
Format                         : HEVC
Format/Info                    : High Efficiency Video Coding
Format profile                 : Main 10@L5.1@Main
Codec ID                       : V_MPEGH/ISO/HEVC
Duration                       : 22 min 36 s
Bit rate                       : 13.2 Mb/s
Width                          : 3 840 pixels
Height                         : 2 160 pixels
Display aspect ratio           : 16:9
Frame rate mode                : Constant
Frame rate                     : 23.976 (24000/1001) FPS
Color space                    : YUV
Chroma subsampling             : 4:2:0
Bit depth                      : 10 bits
Bits/(Pixel*Frame)             : 0.067
Stream size                    : 2.09 GiB (96%)
Default                        : Yes
Forced                         : No

Audio
ID                             : 2
Format                         : E-AC-3
Format/Info                    : Enhanced AC-3
Commercial name                : Dolby Digital Plus
Codec ID                       : A_EAC3
Duration                       : 22 min 36 s
Bit rate mode                  : Constant
Bit rate                       : 256 kb/s
Channel(s)                     : 6 channels
Channel layout                 : L R C LFE Ls Rs
Sampling rate                  : 48.0 kHz
Frame rate                     : 31.250 FPS (1536 SPF)
Compression mode               : Lossy
Delay relative to video        : 24 ms
Stream size                    : 41.4 MiB (2%)
Language                       : English
Service kind                   : Complete Main
Default                        : Yes
Forced                         : No

Text
ID                             : 3
Format                         : UTF-8
Codec ID                       : S_TEXT/UTF8
Codec ID/Info                  : UTF-8 Plain Text
Title                          : English
Language                       : English
Default                        : No
Forced                         : No

下载地址

游客,如果您要查看本帖隐藏内容请回复


相关《吸血鬼生活  全第一、二、三季》4K高清版本续集下载链接

吸血鬼生活(内嵌中字) (2019) / 第一季全10集 / 4K高清版本下载
吸血鬼生活 (2020) / 第二季全10集 / 4K高清版本下载
吸血鬼生活 / What We Do in the Shadows (2021) /第三季全 /4K高清下载





.

上一篇:吸血鬼生活(内嵌中字) (2019) / 第一季全10集 / 4K高清版本下载
下一篇:披头士乐队:回归 (中字) (2021) /第一季全3集/ 4K高清版本下载
回复

使用道具 举报

0

主题

1337

帖子

3809

积分

中级会员

Rank: 4

积分
3809
发表于 2021-11-25 15:29:38 来自手机 | 显示全部楼层
确实不错,顶先
回复 支持 反对

使用道具 举报

55

主题

1483

帖子

4281

积分

4K家园VIP

Rank: 9Rank: 9Rank: 9

积分
4281
发表于 2021-11-29 15:07:12 | 显示全部楼层
高手云集 果断围观
回复 支持 反对

使用道具 举报

49

主题

1431

帖子

4099

积分

4K家园VIP

Rank: 9Rank: 9Rank: 9

积分
4099
发表于 6 天前 来自手机 | 显示全部楼层
好,很好,非常好!
回复 支持 反对

使用道具 举报

44

主题

1428

帖子

4130

积分

4K家园VIP

Rank: 9Rank: 9Rank: 9

积分
4130
发表于 6 天前 | 显示全部楼层
好像还可以
回复 支持 反对

使用道具 举报

3

主题

1241

帖子

3741

积分

4K家园VIP

Rank: 9Rank: 9Rank: 9

积分
3741
发表于 6 天前 | 显示全部楼层
沙发???
回复 支持 反对

使用道具 举报

您需要登录后才可以回帖 登录 | 立即注册

本版积分规则

精彩图文
Archiver|手机版|TAG|Sitemap|新帖|专题|联系我们:邮箱: 4kjia.com@gmail.com   

4k家园   ©2019