[4K电影] 喧闹一家亲:圣诞节大冒险!(真人版) (2021) 4K高清版本下载

[复制链接]

1323

主题

1428

帖子

1万

积分

超级版主

Rank: 8Rank: 8

积分
11131
 楼主| 发表于 2021-12-1 12:40:45 | 显示全部楼层 |阅读模式
本帖最后由 最爱4K哟 于 2021-12-1 12:51 编辑

QQ图片20211201123345_副本.png

◎译  名 喧闹一家亲:圣诞节大冒险!/喧闹一家亲(真人版)
◎片  名 The Loud House: A Very Loud Christmas!
◎年  代 2021
◎产  地 美国
◎类  别 剧情 / 喜剧 / 冒险
◎语  言 英语
◎上映日期 2021-11-26(美国)◎IMDb评分  4.3/10 from 305 users
◎IMDb链接  https://www.imdb.com/title/tt11947282/
◎豆瓣评分 0/10 from 0 users
◎豆瓣链接 https://movie.douban.com/subject/35576244/
◎导  演 乔纳森·扎治 Jonathan Judge
◎编  剧 克里斯·萨维诺 Chris Savino
◎主  演 布赖恩·斯特帕尼克 Brian Stepanek
        布瑞恩韦德 Brian Wade
        凯萨琳·塔柏 Catherine Taber
        莱希·德贝内代托 Lexi DiBenedetto
        杰齐尔·布鲁诺 Jahzir Bruno
        吉尔·简·克莱门茨 Jill Jane Clements



◎简  介



         当他的妹妹有了自己的圣诞节计划后,Lincoln Loud决定秘密地把他们带回来,在他最好的朋友的帮助下,继续他们古老的圣诞节传统
General
Complete name                  : E:\4K@电影\A.Loud.House.Christmas.2021.2160p.PMTP.WEB-DL.DDP5.1.HEVC-WELP.mkv
Format                         : Matroska
Format version                 : Version 4
File size                      : 4.46 GiB
Duration                       : 1 h 4 min
Overall bit rate               : 9 864 kb/s
Encoded date                   : UTC 2021-11-26 15:35:18
Writing application            : mkvmerge v63.0.0 ('Everything') 64-bit
Writing library                : libebml v1.4.2 + libmatroska v1.6.4

Video
ID                             : 1
Format                         : HEVC
Format/Info                    : High Efficiency Video Coding
Format profile                 : Main@L5@Main
Codec ID                       : V_MPEGH/ISO/HEVC
Duration                       : 1 h 4 min
Bit rate                       : 9 028 kb/s
Width                          : 3 840 pixels
Height                         : 2 160 pixels
Display aspect ratio           : 16:9
Frame rate mode                : Constant
Frame rate                     : 23.976 (24000/1001) FPS
Color space                    : YUV
Chroma subsampling             : 4:2:0
Bit depth                      : 8 bits
Bits/(Pixel*Frame)             : 0.045
Stream size                    : 4.09 GiB (92%)
Writing library                : x265 3.5+1-f0c1022b6:[Linux][GCC 9.3.0][64 bit] 8bit
Encoding settings              : cpuid=1111039 / frame-threads=3 / wpp / no-pmode / no-pme / no-psnr / no-ssim / log-level=2 / input-csp=1 / input-res=3840x2160 / interlace=0 / total-frames=0 / level-idc=0 / high-tier=1 / uhd-bd=0 / ref=4 / no-allow-non-conformance / repeat-headers / annexb / no-aud / no-eob / no-eos / no-hrd / info / hash=0 / no-temporal-layers / open-gop / min-keyint=48 / keyint=48 / gop-lookahead=0 / bframes=4 / b-adapt=2 / b-pyramid / bframe-bias=0 / rc-lookahead=25 / lookahead-slices=4 / scenecut=0 / hist-scenecut=0 / radl=0 / no-splice / no-intra-refresh / ctu=64 / min-cu-size=8 / rect / no-amp / max-tu-size=32 / tu-inter-depth=1 / tu-intra-depth=1 / limit-tu=0 / rdoq-level=2 / dynamic-rd=0.00 / no-ssim-rd / signhide / no-tskip / nr-intra=0 / nr-inter=0 / no-constrained-intra / strong-intra-smoothing / max-merge=3 / limit-refs=3 / limit-modes / me=3 / subme=3 / merange=57 / temporal-mvp / no-frame-dup / no-hme / weightp / no-weightb / no-analyze-src-pics / deblock=0:0 / sao / no-sao-non-deblock / rd=4 / selective-sao=4 / no-early-skip / rskip / no-fast-intra / no-tskip-fast / no-cu-lossless / no-b-intra / no-splitrd-skip / rdpenalty=0 / psy-rd=2.00 / psy-rdoq=1.00 / no-rd-refine / no-lossless / cbqpoffs=0 / crqpoffs=0 / rc=abr / bitrate=9505 / qcomp=0.60 / qpstep=4 / stats-write=0 / stats-read=2 / cplxblur=20.0 / qblur=0.5 / vbv-maxrate=11406 / vbv-bufsize=9505 / vbv-init=0.8 / min-vbv-fullness=50.0 / max-vbv-fullness=80.0 / ipratio=1.40 / pbratio=1.30 / aq-mode=2 / aq-strength=1.00 / cutree / zone-count=0 / no-strict-cbr / qg-size=32 / no-rc-grain / qpmax=69 / qpmin=0 / no-const-vbv / sar=1 / overscan=0 / videoformat=5 / range=0 / colorprim=1 / transfer=1 / colormatrix=1 / chromaloc=0 / display-window=0 / cll=0,0 / min-luma=0 / max-luma=255 / log2-max-poc-lsb=8 / vui-timing-info / vui-hrd-info / slices=1 / no-opt-qp-pps / no-opt-ref-list-length-pps / no-multi-pass-opt-rps / scenecut-bias=0.05 / hist-threshold=0.03 / no-opt-cu-delta-qp / no-aq-motion / no-hdr10 / no-hdr10-opt / no-dhdr10-opt / no-idr-recovery-sei / analysis-reuse-level=0 / analysis-save-reuse-level=0 / analysis-load-reuse-level=0 / scale-factor=0 / refine-intra=0 / refine-inter=0 / refine-mv=1 / refine-ctu-distortion=0 / no-limit-sao / ctu-info=0 / no-lowpass-dct / refine-analysis-type=0 / copy-pic=1 / max-ausize-factor=1.0 / no-dynamic-refine / no-single-sei / no-hevc-aq / no-svt / no-field / qp-adaptation-range=1.00 / scenecut-aware-qp=0conformance-window-offsets / right=0 / bottom=0 / decoder-max-rate=0 / no-vbv-live-multi-pass
Default                        : Yes
Forced                         : No
Color range                    : Limited
Color primaries                : BT.709
Transfer characteristics       : BT.709
Matrix coefficients            : BT.709

Audio
ID                             : 2
Format                         : E-AC-3
Format/Info                    : Enhanced AC-3
Commercial name                : Dolby Digital Plus
Codec ID                       : A_EAC3
Duration                       : 1 h 4 min
Bit rate mode                  : Constant
Bit rate                       : 640 kb/s
Channel(s)                     : 6 channels
Channel layout                 : L R C LFE Ls Rs
Sampling rate                  : 48.0 kHz
Frame rate                     : 31.250 FPS (1536 SPF)
Compression mode               : Lossy
Stream size                    : 297 MiB (6%)
Language                       : English
Service kind                   : Complete Main
Default                        : Yes
Forced                         : No

Text #1
ID                             : 3
Format                         : UTF-8
Codec ID                       : S_TEXT/UTF8
Codec ID/Info                  : UTF-8 Plain Text
Language                       : English
Default                        : No
Forced                         : No

Text #2
ID                             : 4
Format                         : UTF-8
Codec ID                       : S_TEXT/UTF8
Codec ID/Info                  : UTF-8 Plain Text
Title                          : SDH
Language                       : English
Default                        : No
Forced                         : No


迅雷下载资源速度为零或资源敏感被和谐时,推荐使用qBittorrent等下载软件,有条件的推荐115更好的下载软件!

下载地址

游客,如果您要查看本帖隐藏内容请回复









上一篇:罪人(内封简繁中字) / The Guilty (2021) 4K高清版本下载
下一篇:贝尔法斯特 / Belfast (2021) 4K高清版本下载
回复

使用道具 举报

56

主题

1425

帖子

4109

积分

4K家园VIP

Rank: 9Rank: 9Rank: 9

积分
4109
发表于 2021-12-1 12:40:48 来自手机 | 显示全部楼层
呵呵,低调,低调!
回复 支持 反对

使用道具 举报

51

主题

1435

帖子

4209

积分

4K家园VIP

Rank: 9Rank: 9Rank: 9

积分
4209
发表于 2021-12-1 12:40:48 | 显示全部楼层
very good
回复 支持 反对

使用道具 举报

39

主题

1485

帖子

4249

积分

4K家园VIP

Rank: 9Rank: 9Rank: 9

积分
4249
发表于 2021-12-1 13:11:58 | 显示全部楼层
纯粹路过,没任何兴趣,仅仅是看在老用户份上回复一下
回复 支持 反对

使用道具 举报

2

主题

1388

帖子

3984

积分

4K家园VIP

Rank: 9Rank: 9Rank: 9

积分
3984
发表于 2021-12-1 13:34:14 | 显示全部楼层
顶起出售广告位
回复 支持 反对

使用道具 举报

0

主题

237

帖子

1455

积分

注册会员

Rank: 2

积分
1455
发表于 2021-12-1 13:36:11 | 显示全部楼层
谢谢楼主分享
回复 支持 反对

使用道具 举报

2

主题

1388

帖子

4016

积分

中级会员

Rank: 4

积分
4016
发表于 2021-12-1 13:40:44 | 显示全部楼层
多谢楼主分享
回复 支持 反对

使用道具 举报

0

主题

237

帖子

1455

积分

注册会员

Rank: 2

积分
1455
发表于 2021-12-2 19:52:43 | 显示全部楼层
谢谢楼主分享
回复 支持 反对

使用道具 举报

您需要登录后才可以回帖 登录 | 立即注册

本版积分规则

精彩图文
Archiver|手机版|TAG|Sitemap|新帖|专题|联系我们:邮箱: 4kjia.com@gmail.com   

4k家园   ©2019