[4K电影] 小屁孩日记 (内封中字) /Diary of a Wimpy Kid (2021) 4K高清版本下载

[复制链接]

1339

主题

1444

帖子

1万

积分

超级版主

Rank: 8Rank: 8

积分
11232
 楼主| 发表于 2021-12-3 18:51:21 | 显示全部楼层 |阅读模式
本帖最后由 最爱4K哟 于 2021-12-3 19:32 编辑

QQ图片20211203184834_副本.png

◎译  名 小屁孩日记 / 逊咖冒险王(台) / 孱仔歷險記(港)
◎片  名 Diary of a Wimpy Kid
◎年  代 2021
◎产  地 美国
◎类  别 动画
◎语  言 英语
◎上映日期 2021-12-03(美国)
◎IMDb评分  0/10 from 0 users
◎IMDb链接  https://www.imdb.com/title/tt13834480/
◎豆瓣评分 0/10 from 0 users
◎豆瓣链接 https://movie.douban.com/subject/34951617/
◎片  长 92分钟
◎导  演 杰夫·金尼
◎编  剧 卡米尔·格里芬
◎主  演 罗伯特·卡普荣
                   迪西·迪奥拉
                   曲奇·莫扎特
                   乔丹刮匙
                   莉莉·罗斯银



◎简  介

        格雷格·赫夫利是一个雄心勃勃的孩子,有着活跃的想象力和发财成名的宏伟计划。问题是他必须先从中学毕业。
General
Complete name                  : H:\4K@电影\Diary.of.a.Wimpy.Kid.2021.2160p.WEB-DL.DDP5.1.DV.HEVC-TEPES.mp4
Format                         : MPEG-4
Format profile                 : Base Media / Version 2
Codec ID                       : mp42 (isom/mp42/dby1)
File size                      : 8.75 GiB
Duration                       : 56 min 11 s
Overall bit rate mode          : Variable
Overall bit rate               : 22.3 Mb/s
IsTruncated                    : Yes

Video
ID                             : 1
Format                         : HEVC
Format/Info                    : High Efficiency Video Coding
Format profile                 : Main 10@L5.2@Main
HDR format                     : Dolby Vision, Version 1.0, dvhe.05.06, BL+RPU
Codec ID                       : dvhe
Codec ID/Info                  : High Efficiency Video Coding with Dolby Vision
Duration                       : 56 min 8 s
Bit rate                       : 22.2 Mb/s
Width                          : 3 840 pixels
Height                         : 2 160 pixels
Display aspect ratio           : 16:9
Frame rate mode                : Constant
Frame rate                     : 23.976 (24000/1001) FPS
Color space                    : YUV
Chroma subsampling             : 4:2:0 (Type 0)
Bit depth                      : 10 bits
Bits/(Pixel*Frame)             : 0.111
Stream size                    : 8.69 GiB (99%)
Default                        : Yes
Alternate group                : 1
Color range                    : Full
Codec configuration box        : hvcC+dvcC

Audio
ID                             : 2
Format                         : E-AC-3
Format/Info                    : Enhanced AC-3
Commercial name                : Dolby Digital Plus
Codec ID                       : ec-3
Duration                       : 56 min 11 s
Source duration                : 56 min 10 s
Bit rate mode                  : Constant
Bit rate                       : 256 kb/s
Maximum bit rate               : 270 kb/s
Channel(s)                     : 6 channels
Channel layout                 : L R C LFE Ls Rs
Sampling rate                  : 48.0 kHz
Frame rate                     : 31.250 FPS (1536 SPF)
Compression mode               : Lossy
Stream size                    : 103 MiB (1%)
Source stream size             : 103 MiB (1%)
Language                       : English
Service kind                   : Complete Main
Default                        : Yes
Alternate group                : 1

Text #1
ID                             : 4
Format                         : Timed Text
Codec ID                       : tx3g
Duration                       : 53 min 29 s
Bit rate mode                  : Variable
Bit rate                       : 99 b/s
Stream size                    : 38.9 KiB (0%)
Language                       : English
Forced                         : No

Text #2
ID                             : 5
Format                         : Timed Text
Codec ID                       : tx3g
Duration                       : 53 min 29 s
Bit rate mode                  : Variable
Bit rate                       : 118 b/s
Stream size                    : 46.2 KiB (0%)
Title                          : SDH
Language                       : English
Forced                         : No

Text #3
ID                             : 6
Format                         : Timed Text
Codec ID                       : tx3g
Duration                       : 56 min 7 s
Bit rate mode                  : Variable
Bit rate                       : 84 b/s
Stream size                    : 34.3 KiB (0%)
Language                       : Danish
Forced                         : No

Text #4
ID                             : 7
Format                         : Timed Text
Codec ID                       : tx3g
Duration                       : 56 min 7 s
Bit rate mode                  : Variable
Bit rate                       : 81 b/s
Stream size                    : 33.3 KiB (0%)
Language                       : German
Forced                         : No

Text #5
ID                             : 8
Format                         : Timed Text
Codec ID                       : tx3g
Duration                       : 56 min 7 s
Bit rate mode                  : Variable
Bit rate                       : 86 b/s
Stream size                    : 35.5 KiB (0%)
Title                          : Latin American
Language                       : Spanish
Forced                         : No

Text #6
ID                             : 9
Format                         : Timed Text
Codec ID                       : tx3g
Duration                       : 56 min 7 s
Bit rate mode                  : Variable
Bit rate                       : 85 b/s
Stream size                    : 35.1 KiB (0%)
Language                       : Spanish
Forced                         : No

Text #7
ID                             : 10
Format                         : Timed Text
Codec ID                       : tx3g
Duration                       : 56 min 7 s
Bit rate mode                  : Variable
Bit rate                       : 88 b/s
Stream size                    : 36.0 KiB (0%)
Language                       : Finnish
Forced                         : No

Text #8
ID                             : 11
Format                         : Timed Text
Codec ID                       : tx3g
Duration                       : 56 min 7 s
Bit rate mode                  : Variable
Bit rate                       : 88 b/s
Stream size                    : 36.2 KiB (0%)
Language                       : French
Forced                         : No

Text #9
ID                             : 12
Format                         : Timed Text
Codec ID                       : tx3g
Duration                       : 56 min 7 s
Bit rate mode                  : Variable
Bit rate                       : 77 b/s
Stream size                    : 31.6 KiB (0%)
Language                       : Indonesian
Forced                         : No

Text #10
ID                             : 13
Format                         : Timed Text
Codec ID                       : tx3g
Duration                       : 56 min 7 s
Bit rate mode                  : Variable
Bit rate                       : 75 b/s
Stream size                    : 30.8 KiB (0%)
Language                       : Italian
Forced                         : No

Text #11
ID                             : 14
Format                         : Timed Text
Codec ID                       : tx3g
Duration                       : 56 min 7 s
Bit rate mode                  : Variable
Bit rate                       : 67 b/s
Stream size                    : 27.7 KiB (0%)
Language                       : Japanese
Forced                         : No

Text #12
ID                             : 15
Format                         : Timed Text
Codec ID                       : tx3g
Duration                       : 56 min 7 s
Bit rate mode                  : Variable
Bit rate                       : 80 b/s
Stream size                    : 32.9 KiB (0%)
Language                       : Korean
Forced                         : No

Text #13
ID                             : 16
Format                         : Timed Text
Codec ID                       : tx3g
Duration                       : 56 min 7 s
Bit rate mode                  : Variable
Bit rate                       : 79 b/s
Stream size                    : 32.6 KiB (0%)
Language                       : Malay
Forced                         : No

Text #14
ID                             : 17
Format                         : Timed Text
Codec ID                       : tx3g
Duration                       : 56 min 7 s
Bit rate mode                  : Variable
Bit rate                       : 67 b/s
Stream size                    : 27.6 KiB (0%)
Language                       : Dutch
Forced                         : No

Text #15
ID                             : 18
Format                         : Timed Text
Codec ID                       : tx3g
Duration                       : 56 min 2 s
Bit rate mode                  : Variable
Bit rate                       : 87 b/s
Stream size                    : 35.6 KiB (0%)
Language                       : Norwegian
Forced                         : No

Text #16
ID                             : 19
Format                         : Timed Text
Codec ID                       : tx3g
Duration                       : 56 min 3 s
Bit rate mode                  : Variable
Bit rate                       : 77 b/s
Stream size                    : 31.8 KiB (0%)
Language                       : Polish
Forced                         : No

Text #17
ID                             : 20
Format                         : Timed Text
Codec ID                       : tx3g
Duration                       : 56 min 7 s
Bit rate mode                  : Variable
Bit rate                       : 83 b/s
Stream size                    : 34.3 KiB (0%)
Title                          : Brazilian
Language                       : Portuguese
Forced                         : No

Text #18
ID                             : 21
Format                         : Timed Text
Codec ID                       : tx3g
Duration                       : 56 min 2 s
Bit rate mode                  : Variable
Bit rate                       : 89 b/s
Stream size                    : 36.6 KiB (0%)
Language                       : Portuguese
Forced                         : No

Text #19
ID                             : 22
Format                         : Timed Text
Codec ID                       : tx3g
Duration                       : 56 min 7 s
Bit rate mode                  : Variable
Bit rate                       : 89 b/s
Stream size                    : 36.6 KiB (0%)
Language                       : Swedish
Forced                         : No

Text #20
ID                             : 23
Format                         : Timed Text
Codec ID                       : tx3g
Duration                       : 56 min 7 s
Bit rate mode                  : Variable
Bit rate                       : 188 b/s
Stream size                    : 77.3 KiB (0%)
Language                       : Thai
Forced                         : No

Text #21
ID                             : 24
Format                         : Timed Text
Codec ID                       : tx3g
Duration                       : 56 min 7 s
Bit rate mode                  : Variable
Bit rate                       : 75 b/s
Stream size                    : 30.8 KiB (0%)
Language                       : 中文
Forced                         : No

Text #22
ID                             : 25
Format                         : Timed Text
Codec ID                       : tx3g
Duration                       : 56 min 7 s
Bit rate mode                  : Variable
Bit rate                       : 79 b/s
Stream size                    : 32.5 KiB (0%)
Title                          : 简体
Language                       : 中文
Forced                         : No

Text #23
ID                             : 26
Format                         : Timed Text
Codec ID                       : tx3g
Duration                       : 56 min 7 s
Bit rate mode                  : Variable
Bit rate                       : 67 b/s
Stream size                    : 27.5 KiB (0%)
Title                          : 繁体
Language                       : 中文
Forced                         : No


Menu
00:53:38.969                   : Credits

迅雷下载资源速度为零,资源敏感或被和谐时,推荐使用qBittorrent等无限速下载软件,有条件的推荐115更好的下载软件!

下载地址

游客,如果您要查看本帖隐藏内容请回复

游客,如果您要查看本帖隐藏内容请回复

游客,如果您要查看本帖隐藏内容请回复





.

上一篇:黑衣人(内封中字) / Men in Black (1997) 4K高清版本下载
下一篇:星际穿越 / Interstellar (2014) 4K高清版本下载
回复

使用道具 举报

2

主题

1380

帖子

4113

积分

4K家园VIP

Rank: 9Rank: 9Rank: 9

积分
4113
发表于 2021-12-3 18:51:25 | 显示全部楼层
在撸一遍。。。
回复 支持 反对

使用道具 举报

0

主题

7280

帖子

1万

积分

4K家园VIP

Rank: 9Rank: 9Rank: 9

积分
16651
发表于 2021-12-3 18:59:47 | 显示全部楼层
太好啦&萬分感謝版主的無私發佈分享%
回复 支持 反对

使用道具 举报

0

主题

2

帖子

12

积分

新手上路

Rank: 1

积分
12
发表于 2021-12-4 01:08:26 | 显示全部楼层
厉害,感谢感谢
回复 支持 反对

使用道具 举报

0

主题

2

帖子

18

积分

新手上路

Rank: 1

积分
18
发表于 2021-12-4 09:59:03 | 显示全部楼层

厉害,感谢感谢
回复 支持 反对

使用道具 举报

0

主题

2

帖子

9

积分

新手上路

Rank: 1

积分
9
发表于 2021-12-4 14:52:41 | 显示全部楼层

best free webcam sites

best free webcam sites
回复 支持 反对

使用道具 举报

46

主题

1406

帖子

4046

积分

4K家园VIP

Rank: 9Rank: 9Rank: 9

积分
4046
发表于 2021-12-7 08:48:02 | 显示全部楼层
谢谢楼主
回复 支持 反对

使用道具 举报

0

主题

1300

帖子

3912

积分

4K家园VIP

Rank: 9Rank: 9Rank: 9

积分
3912
发表于 2021-12-10 08:12:41 | 显示全部楼层
4K家园资源不错,前排支持
回复 支持 反对

使用道具 举报

44

主题

1485

帖子

4273

积分

4K家园VIP

Rank: 9Rank: 9Rank: 9

积分
4273
发表于 2021-12-18 04:55:39 | 显示全部楼层
顶起出售广告位
回复 支持 反对

使用道具 举报

56

主题

1512

帖子

4420

积分

4K家园VIP

Rank: 9Rank: 9Rank: 9

积分
4420
发表于 2021-12-23 21:53:52 | 显示全部楼层
是爷们的娘们的都帮顶!大力支持
回复 支持 反对

使用道具 举报

您需要登录后才可以回帖 登录 | 立即注册

本版积分规则

精彩图文
Archiver|手机版|TAG|Sitemap|新帖|专题|联系我们:邮箱: 4kjia.com@gmail.com   

4k家园   ©2019